Kayhan Kalhor & Erdal Erzincan – Kula Kulluk Yakisir Mi (2013) {ECM 2181} [Re-Up]

Download
Kayhan Kalhor & Erdal Erzincan - Kula Kulluk Yakisir Mi (2013) {ECM 2181} [Re-Up]

Kayhan Kalhor & Erdal Erzincan – Kula Kulluk Yakisir Mi (2013) {ECM 2181}
EAC 1.0b3 | FLAC tracks level 8 | Cue+Log+M3U | Full Scans 300dpi | 371MB + 5% Recovery
MP3 CBR 320 Kbps | 154MB + 5% Recovery
Genre: Ethnic Fusion, Avant-Garde, Neo-Traditional
Kayhan Kalhor & Erdal Erzincan - Kula Kulluk Yakisir Mi (2013) {ECM 2181} [Re-Up]

It has been nearly a decade since Kayhan Kalhor and Erdal Erzincan recorded The Wind for ECM. During that long interval, the pair have played together so often, they appear to have perfected a musical language that walks not only between various musical traditions but through them simultaneously, coming through the other side with something timeless. Kalhor is an Iranian master of the kamancheh (spike fiddle). He has a relentlessly mercurial musical mind. It’s been displayed not only in his work as a solo artist, with the duo Ghazal, and the ensemble Dastan, but also in Yo-Yo Ma’s Silk Road Ensemble. Erzincan is regarded as the greatest living practitioner of the Anatolian baglama tradition (it is also called a saz, a long-necked lute type of instrument), and like his partner here, possesses a wildly adventurous spirit, not only in moving from Turkish folk and Western classical traditions with seamless ease, but also as an improviser. Kula Kulluk Yakisir Mi was recorded live in 2011. Its title is taken from the folk song by the late prolific Turkish folk musician Muhlis Akarsu. It translates loosely as "How unseemly it is to follow anyone slavishly." Other than this duo’s glorious version of that song and a thematic reprise of "The Wind," everything here is either built upon – but never stays chained to – traditional folk songs or consists of outright improvisations that come from nothing, engage both Persian and Turkish folk traditions, and emerge as a deeply emotional music that is unclassifiable. While everything here feels like it is of a piece – the performance never seems to stop – it doesn’t necessarily sound like it. There are poignant silences within these arrangements, where the individual or paired instruments resonate as if to underscore meaning, either directly intended by a piece or intuited from it – check the two-minute mark of the traditional "Alli Turnam," where the theme trails off, is followed by a naturally echoing space, and then turns back on itself to speak of the troublesome historical present even as it addresses a more innocent past. None of the five improvisations here reaches four minutes. The degree of intuitive interplay is so high, it is almost impossible not to regard these as formal works. They are informed by the traditional songs that precede them and foreshadow those that follow, as they shift and transform songs into sounds that are both beguilingly strange and ancient – familiar in the body’s cellular memory and in the heart’s present moment. The final nine minutes, entitled "Intertwining Melodies," weave four traditional songs and become an extended improvisation upon them all, even as they are united in one flowing river of sound, history, and mystery. Kula Kulluk Yakisir Mi is outstanding for its depth and truly masterful execution, but more than this, it is revelatory in the way it connects players to one another inside the music, and listeners to both musicians and sound, as it evokes emotions that are far beyond the reach of words.

Track List
01. Improvisation I 5:24
02. Allı Turnam (Traditional) 5:42
03. Improvisation II 3:23
04. Deli Derviş (Traditional) 4:10
05. Daldalan Barı (Traditional) 6:18
06. Improvisation III 2:59
07. Kula Kulluk Yakışır Mı (Muhlis Akarsu) 8:57
08. Improvisation IV 3:44
09. Improvisation V 2:14
10. The Wind (Erdal Erzincan/Kayhan Kahlor) 7:31
11. Intertwining Melodies 9:13
– Sivas Halayı (Traditional)
– Mevlam Birçok Dert Vermiş (Traditional)
– Erik Dalı Gevrektir (Traditional)
– Gol Nishan (Traditional)

musicians
Kayhan Kalhor – kamancheh
Erdal Erzincan – baglama

Produced by Manfred Eicher

EAC Logfile
Exact Audio Copy V1.0 beta 3 from 29. August 2011

EAC extraction logfile from 7. October 2013, 0:34

Kayhan Kalhor & Erdal Erzincan / Kula Kulluk Yakisir Mi [ECM 2181]

Used drive : PLEXTOR DVDR PX-891SA Adapter: 4 ID: 1

Read mode : Secure
Utilize accurate stream : Yes
Defeat audio cache : Yes
Make use of C2 pointers : No

Read offset correction : 6
Overread into Lead-In and Lead-Out : No
Fill up missing offset samples with silence : Yes
Delete leading and trailing silent blocks : No
Null samples used in CRC calculations : Yes
Used interface : Native Win32 interface for Win NT & 2000
Gap handling : Appended to previous track

Used output format : User Defined Encoder
Selected bitrate : 256 kBit/s
Quality : High
Add ID3 tag : No
Command line compressor : C:Archivos de programaExact Audio CopyFLACFLAC.EXE
Additional command line options : -8 -V -T "ARTIST=%artist%" -T "TITLE=%title%" -T "ALBUM=%albumtitle%" -T "DATE=%year%" -T "TRACKNUMBER=%tracknr%" -T "TOTALTRACKS=%numtracks%" -T "GENRE=%genre%" -T "ALBUMARTIST=%albumartist%" -T "ALBUM ARTIST=%albumartist%" -T "COMMENT=EAC Secure Mode, Test & Copy, AccurateRip, FLAC -8" %source%

TOC of the extracted CD

Track | Start | Length | Start sector | End sector
––––––––––––––––––––––––––––-
1 | 0:00.00 | 5:29.19 | 0 | 24693
2 | 5:29.19 | 5:43.36 | 24694 | 50454
3 | 11:12.55 | 3:23.53 | 50455 | 65732
4 | 14:36.33 | 4:11.44 | 65733 | 84601
5 | 18:48.02 | 6:18.17 | 84602 | 112968
6 | 25:06.19 | 3:00.64 | 112969 | 126532
7 | 28:07.08 | 8:57.57 | 126533 | 166864
8 | 37:04.65 | 3:45.09 | 166865 | 183748
9 | 40:49.74 | 2:14.33 | 183749 | 193831
10 | 43:04.32 | 7:31.11 | 193832 | 227667
11 | 50:35.43 | 9:19.19 | 227668 | 269611

Track 1

Filename D:flac rips1 – Improvisation I.wav

Pre-gap length 0:00:02.00

Peak level 98.8 %
Extraction speed 5.6 X
Track quality 100.0 %
Test CRC 00081263
Copy CRC 00081263
Accurately ripped (confidence 1) [6721AF73] (AR v2)
Copy OK

Track 2

Filename D:flac rips2 – Alli Turnam.wav

Peak level 98.8 %
Extraction speed 6.4 X
Track quality 100.0 %
Test CRC 92B3B59D
Copy CRC 92B3B59D
Accurately ripped (confidence 1) [9F19B839] (AR v2)
Copy OK

Track 3

Filename D:flac rips3 – Improvisation II.wav

Peak level 98.8 %
Extraction speed 6.6 X
Track quality 100.0 %
Test CRC DFEBB0E0
Copy CRC DFEBB0E0
Accurately ripped (confidence 1) [40F2F1EE] (AR v2)
Copy OK

Track 4

Filename D:flac rips4 – Deli Dervis.wav

Peak level 98.8 %
Extraction speed 7.2 X
Track quality 100.0 %
Test CRC D424CB5A
Copy CRC D424CB5A
Accurately ripped (confidence 1) [8E142A2F] (AR v2)
Copy OK

Track 5

Filename D:flac rips5 – Daldalan Bari.wav

Peak level 98.8 %
Extraction speed 8.1 X
Track quality 100.0 %
Test CRC 4782992D
Copy CRC 4782992D
Accurately ripped (confidence 1) [C5E7A77E] (AR v2)
Copy OK

Track 6

Filename D:flac rips6 – Improvisation III.wav

Peak level 98.8 %
Extraction speed 7.8 X
Track quality 100.0 %
Test CRC 1E4A4AC1
Copy CRC 1E4A4AC1
Accurately ripped (confidence 1) [2B47DC44] (AR v2)
Copy OK

Track 7

Filename D:flac rips7 – Kula Kulluk Yakisir Mi.wav

Peak level 98.8 %
Extraction speed 9.4 X
Track quality 100.0 %
Test CRC 5F60EDDB
Copy CRC 5F60EDDB
Accurately ripped (confidence 1) [EADC78AE] (AR v2)
Copy OK

Track 8

Filename D:flac rips8 – Improvisation IV.wav

Peak level 98.8 %
Extraction speed 7.4 X
Track quality 99.9 %
Test CRC 3229585E
Copy CRC 3229585E
Accurately ripped (confidence 1) [050E318C] (AR v2)
Copy OK

Track 9

Filename D:flac rips9 – Improvisation V.wav

Peak level 98.6 %
Extraction speed 6.2 X
Track quality 99.9 %
Test CRC 9F648F71
Copy CRC 9F648F71
Accurately ripped (confidence 1) [8AACC4F1] (AR v2)
Copy OK

Track 10

Filename D:flac rips10 – The Wind.wav

Peak level 98.8 %
Extraction speed 10.5 X
Track quality 100.0 %
Test CRC 5D976D21
Copy CRC 5D976D21
Accurately ripped (confidence 1) [2FF3E4E4] (AR v2)
Copy OK

Track 11

Filename D:flac rips11 – Intertwining Melodies-Sivas Halayi-Mevlam Bircok Dert Vermis-Erik Dali.wav

Peak level 98.8 %
Extraction speed 11.3 X
Track quality 100.0 %
Test CRC D37CE2DE
Copy CRC D37CE2DE
Accurately ripped (confidence 1) [9DBDAF19] (AR v2)
Copy OK

All tracks accurately ripped

No errors occurred

End of status report

==== Log checksum 3259156CB299FA6015343832126E024CEB17F686D6B94769BEF43057BB12B196 ====

Dynamic Range Analysis
––––––––––––––––––––––––––––––––––––––––
Analyzed: Kayhan Kalhor & Erdal Erzincan / Kula Kulluk Yakisir Mi [ECM 2181]
––––––––––––––––––––––––––––––––––––––––

DR Peak RMS Duration Track
––––––––––––––––––––––––––––––––––––––––
DR14 -0.10 dB -18.50 dB 5:29 01-Improvisation I
DR11 -0.10 dB -16.07 dB 5:43 02-Alli Turnam
DR10 -0.10 dB -13.02 dB 3:24 03-Improvisation II
DR11 -0.10 dB -14.27 dB 4:12 04-Deli Dervis
DR10 -0.10 dB -14.38 dB 6:18 05-Daldalan Bari
DR12 -0.10 dB -14.99 dB 3:01 06-Improvisation III
DR9 -0.10 dB -12.19 dB 8:58 07-Kula Kulluk Yakisir Mi
DR14 -0.10 dB -18.55 dB 3:45 08-Improvisation IV
DR12 -0.12 dB -16.23 dB 2:14 09-Improvisation V
DR13 -0.10 dB -16.00 dB 7:31 10-The Wind
DR14 -0.10 dB -16.39 dB 9:19 11-Intertwining Melodies-Sivas Halayi-Mevlam Bircok Dert Vermis-Erik Dali
––––––––––––––––––––––––––––––––––––––––

Number of tracks: 11
Official DR value: DR12

Samplerate: 44100 Hz
Channels: 2
Bits per sample: 16
Bitrate: 841 kbps
Codec: FLAC
================================================================================

Kayhan Kalhor & Erdal Erzincan - Kula Kulluk Yakisir Mi (2013) {ECM 2181} [Re-Up]
Kayhan Kalhor & Erdal Erzincan - Kula Kulluk Yakisir Mi (2013) {ECM 2181} [Re-Up]
Kayhan Kalhor & Erdal Erzincan - Kula Kulluk Yakisir Mi (2013) {ECM 2181} [Re-Up]
Thanks to the original ripper

Kayhan Kalhor & Erdal Erzincan – Kula Kulluk Yakisir Mi (2013) {ECM 2181} [Re-Up] Download, Warez, DDL, Free, Full Album, Torrent, Legal.

Download