Kassap, Touéry, Duscombs – 8 Détours (2015)

Download
Kassap, Touéry, Duscombs - 8 Détours (2015)

Kassap, Touéry, Duscombs – 8 Détours (2015)
EAC Rip | FLAC (tracks+.cue, log) ~ 226.90 Mb | 40:44 | Cover
Free Improvisation, Free Jazz, Contemporary Jazz | Label: Mr Morezon (MRM 011)

Face aux singularités de la richesse artistique du collectif, Freddy Morezon crée en 2006 son propre label, Mr Morezon, afin de permettre aux artistes de la structure de gagner en autonomie et de garantir leur liberté artistique, de par la maîtrise du processus de création dans son ensemble, de sa genèse à sa concrétisation en support physique. La distribution française des albums du label est assurée par Orkhêstra International. Mr Morezon travaille également avec les labels Buda Musique, Not a Pub, Babel Label et Tractor Notown, et avec la plateforme CD-1D Midi-Pyrénées.

Sylvain Kassap : Clarinettes
Julien Touéry : Piano
Fabien Duscombs : Batterie

Compositions improvisées : Fabien Duscombs, Julien Touéry et Sylvain Kassap.

Released May 31, 2015

Enregistrement, mixage et mastering : Antoine Polin
Enregistré le 17 octobre 2014 au Petit Faucheux, à Tours.
Sylvain Kassap joue les clarinettes Selmeret les anches Rico Réserve Classique.
Graphisme : Sarah Innocenti

Track List:
1. Arc Noir 3:49
2. Trivium 8:56
3. Heyokas 7:00
4. Cromlech 6:45
5. Zéphyr 4:07
6. Orages 4:16
7. Points Hauts 1:57
8. À La Moelle !!! 3:55

EAC log
Exact Audio Copy V1.0 beta 3 from 29. August 2011

EAC extraction logfile from 7. October 2017, 11:22

Kassap, Touery, Duscombs / 8 Detours

Used drive : ASUS DRW-24F1ST a Adapter: 0 ID: 0

Read mode : Secure
Utilize accurate stream : Yes
Defeat audio cache : Yes
Make use of C2 pointers : No

Read offset correction : 6
Overread into Lead-In and Lead-Out : No
Fill up missing offset samples with silence : Yes
Delete leading and trailing silent blocks : No
Null samples used in CRC calculations : Yes
Used interface : Native Win32 interface for Win NT & 2000
Gap handling : Appended to previous track

Used output format : User Defined Encoder
Selected bitrate : 320 kBit/s
Quality : High
Add ID3 tag : No
Command line compressor : D:ProgramsExact Audio CopyFlacflac.exe
Additional command line options : -V -8 -T "Genre=%genre%" -T "Artist=%artist%" -T "Title=%title%" -T "Album=%albumtitle%" -T "Date=%year%" -T "Tracknumber=%tracknr%" -T "Comment=%comment%" %source%

TOC of the extracted CD

Track | Start | Length | Start sector | End sector
––––––––––––––––––––––––––––-
1 | 0:00.00 | 3:49.06 | 0 | 17180
2 | 3:49.06 | 8:56.00 | 17181 | 57380
3 | 12:45.06 | 7:00.06 | 57381 | 88886
4 | 19:45.12 | 6:45.30 | 88887 | 119291
5 | 26:30.42 | 4:06.39 | 119292 | 137780
6 | 30:37.06 | 4:15.39 | 137781 | 156944
7 | 34:52.45 | 1:56.63 | 156945 | 165707
8 | 36:49.33 | 3:54.57 | 165708 | 183314

Track 1

Filename C:UsersuserIntelDownloads1 Arc Noir.wav

Pre-gap length 0:00:02.00

Peak level 52.6 %
Extraction speed 1.5 X
Track quality 99.9 %
Test CRC 72BD5470
Copy CRC 72BD5470
Accurately ripped (confidence 1) [5C8A3C9C] (AR v2)
Copy OK

Track 2

Filename C:UsersuserIntelDownloads2 Trivium.wav

Pre-gap length 0:00:01.00

Peak level 93.4 %
Extraction speed 2.2 X
Track quality 100.0 %
Test CRC 02EF8BFD
Copy CRC 02EF8BFD
Accurately ripped (confidence 1) [0B910DBF] (AR v2)
Copy OK

Track 3

Filename C:UsersuserIntelDownloads3 Heyokas.wav

Pre-gap length 0:00:02.00

Peak level 97.0 %
Extraction speed 2.5 X
Track quality 100.0 %
Test CRC 7B52C083
Copy CRC 7B52C083
Accurately ripped (confidence 1) [907877D6] (AR v2)
Copy OK

Track 4

Filename C:UsersuserIntelDownloads4 Cromlech.wav

Pre-gap length 0:00:02.00

Peak level 97.1 %
Extraction speed 2.6 X
Track quality 99.9 %
Test CRC C66A9858
Copy CRC C66A9858
Accurately ripped (confidence 1) [214CA819] (AR v2)
Copy OK

Track 5

Filename C:UsersuserIntelDownloads5 Zephyr.wav

Pre-gap length 0:00:01.00

Peak level 98.1 %
Extraction speed 2.8 X
Track quality 100.0 %
Test CRC D8600631
Copy CRC D8600631
Accurately ripped (confidence 1) [84489B2F] (AR v2)
Copy OK

Track 6

Filename C:UsersuserIntelDownloads6 Orages.wav

Peak level 93.5 %
Extraction speed 2.9 X
Track quality 100.0 %
Test CRC 408621F7
Copy CRC 408621F7
Accurately ripped (confidence 1) [5724CEA5] (AR v2)
Copy OK

Track 7

Filename C:UsersuserIntelDownloads7 Points Hauts.wav

Pre-gap length 0:00:02.00

Peak level 74.1 %
Extraction speed 2.1 X
Track quality 99.9 %
Test CRC 8E99626A
Copy CRC 8E99626A
Accurately ripped (confidence 1) [6EE3394F] (AR v2)
Copy OK

Track 8

Filename C:UsersuserIntelDownloads8 A La Moelle.wav

Pre-gap length 0:00:01.00

Peak level 94.8 %
Extraction speed 3.0 X
Track quality 100.0 %
Test CRC 11FBEB36
Copy CRC 11FBEB36
Accurately ripped (confidence 1) [3973637F] (AR v2)
Copy OK

All tracks accurately ripped

No errors occurred

End of status report

==== Log checksum 9178B755907A2A4C63D337CC8F6DD61AECEF16147205C05A3718C49EB60118B6 ====

All thanks go to the 4idyach

More Music in My Blog
Follow My RSS Channel

Kassap, Touéry, Duscombs – 8 Détours (2015) Download, Warez, DDL, Free, Full Album, Torrent, Legal.

Download