Karol Beffa – Blow Up (2016)

Download
Karol Beffa - Blow Up (2016)

Karol Beffa – Blow Up (2016)
EAC Rip | FLAC (Tracks) +cue, log, digital booklet – 305 MB | MP3 CBR 320 kbps – 176 MB | 01:16:36
Classical | Label: Indesens | Release Year: 2016

Composer Karol Buffa (b. 1973) began his career early, entering into the Conservatoire de Paris at the age of only 14. While at the Conservatoire he won eight first prize awards, in harmony, fugue, counterpoint, 20th century music, orchestration, accompaniment, analysis, and improvisation. Karol Beffa signs a monograph focusing on wind instruments. Of breath, certainly, the Concerto for trumpet and strings do not lack. It is one of the most beautiful songs of the soul of today Blow up, for quartet of wood and piano, assumes a playful aspect, and conjugates references to the repetitive musics and allusions To the current music, in the wake of certain pieces by Guillaume Connesson, Pascal Zavaro or Régis Campo. Powerful sonorous scents, great rhythmic progressions, evoking the music of Thierry Escaich, determine the writing of Subway for piano and trumpet, which is an adaptation of Manhattan for viola and piano. In between shadow and light, Blow up is probably the most faithful opus of the composer’s contrasting style. It is served by great French interpreters.

TRACKLIST

01. Orchestre De La Garde Républicaine, Sébastien Billard, Eric Aubier – Concerto pour trompette et cordes – I.
02. Orchestre De La Garde Républicaine, Sébastien Billard, Eric Aubier – Concerto pour trompette et cordes – II.
03. Ensemble Initium – Blow Up
04. Marie-Pierre Langlamet – Eloge de l’ombre
05. Eric Aubier, Laurent Wagschal – Subway
06. Vincent Lucas, Lise Berthaud, Marie-Pierre Langlamet – Paysages d’ombres – I. Sombre
07. Vincent Lucas, Lise Berthaud, Marie-Pierre Langlamet – Paysages d’ombres – II. Lent
08. Quatuor De Saxophones Jean-Yves Fourmeau – Fireworks – I. Avec swing
09. Quatuor De Saxophones Jean-Yves Fourmeau – Fireworks – II. Ténébreux
10. Quatuor De Saxophones Jean-Yves Fourmeau – Fireworks – III. Immuable
11. Quatuor De Saxophones Jean-Yves Fourmeau – Fireworks – IV. Rythmique

EAC
Exact Audio Copy V1.3 from 2. September 2016

EAC extraction logfile from 13. January 2017, 12:50

Various Artists / Blow Up

Used drive : ATAPI iHBS112 2 Adapter: 1 ID: 1

Read mode : Secure
Utilize accurate stream : Yes
Defeat audio cache : Yes
Make use of C2 pointers : No

Read offset correction : 6
Overread into Lead-In and Lead-Out : No
Fill up missing offset samples with silence : Yes
Delete leading and trailing silent blocks : No
Null samples used in CRC calculations : Yes
Used interface : Native Win32 interface for Win NT & 2000
Gap handling : Appended to previous track

Used output format : User Defined Encoder
Selected bitrate : 128 kBit/s
Quality : High
Add ID3 tag : No
Command line compressor : C:Program Files (x86)Exact Audio CopyFlacflac.exe
Additional command line options : -8 -V -T "ARTIST=%artist%" -T "TITLE=%title%" -T "ALBUM=%albumtitle%" -T "DATE=%year%" -T "TRACKNUMBER=%tracknr%" -T "GENRE=%genre%" -T "PERFORMER=%albuminterpret%" -T "COMPOSER=%composer%" -T "ALBUMARTIST=%albumartist%" -T "DISCNUMBER=%cdnumber%" -T "TOTALDISCS=%totalcds%" -T "TOTALTRACKS=%numtracks%" -T "COMMENT=EAC Secure Mode, Test & Copy, AccurateRip, FLAC -8" %source% -o %dest%

TOC of the extracted CD

Track | Start | Length | Start sector | End sector
––––––––––––––––––––––––––––-
1 | 0:00.00 | 9:18.29 | 0 | 41878
2 | 9:18.29 | 9:50.72 | 41879 | 86200
3 | 19:09.26 | 12:29.63 | 86201 | 142438
4 | 31:39.14 | 6:43.46 | 142439 | 172709
5 | 38:22.60 | 7:29.28 | 172710 | 206412
6 | 45:52.13 | 10:06.13 | 206413 | 251875
7 | 55:58.26 | 8:08.64 | 251876 | 288539
8 | 64:07.15 | 2:37.47 | 288540 | 300361
9 | 66:44.62 | 3:28.44 | 300362 | 316005
10 | 70:13.31 | 2:41.62 | 316006 | 328142
11 | 72:55.18 | 3:47.57 | 328143 | 345224

Track 1

Filename G:DLKarol Beffa – Blow Up (2016) [FLAC]1 – Orchestre De La Garde Republicaine, Sebastien Billard, Eric Aubier – Concerto pour trompette et cordes – I..wav

Pre-gap length 0:00:02.00

Peak level 76.0 %
Extraction speed 6.1 X
Track quality 99.9 %
Test CRC 792FE595
Copy CRC 792FE595
Track not present in AccurateRip database
Copy OK

Track 2

Filename G:DLKarol Beffa – Blow Up (2016) [FLAC]2 – Orchestre De La Garde Republicaine, Sebastien Billard, Eric Aubier – Concerto pour trompette et cordes – II..wav

Peak level 93.1 %
Extraction speed 7.3 X
Track quality 99.9 %
Test CRC E9C2751A
Copy CRC E9C2751A
Track not present in AccurateRip database
Copy OK

Track 3

Filename G:DLKarol Beffa – Blow Up (2016) [FLAC]3 – Ensemble Initium – Blow Up.wav

Peak level 98.8 %
Extraction speed 9.2 X
Track quality 100.0 %
Test CRC 84C0686A
Copy CRC 84C0686A
Track not present in AccurateRip database
Copy OK

Track 4

Filename G:DLKarol Beffa – Blow Up (2016) [FLAC]4 – Marie-Pierre Langlamet – Eloge de l’ombre.wav

Peak level 50.9 %
Extraction speed 9.7 X
Track quality 100.0 %
Test CRC 5547BB96
Copy CRC 5547BB96
Track not present in AccurateRip database
Copy OK

Track 5

Filename G:DLKarol Beffa – Blow Up (2016) [FLAC]5 – Eric Aubier, Laurent Wagschal – Subway.wav

Peak level 98.8 %
Extraction speed 10.4 X
Track quality 100.0 %
Test CRC FD30618B
Copy CRC FD30618B
Track not present in AccurateRip database
Copy OK

Track 6

Filename G:DLKarol Beffa – Blow Up (2016) [FLAC]6 – Vincent Lucas, Lise Berthaud, Marie-Pierre Langlamet – Paysages d’ombres – I. Sombre.wav

Peak level 93.3 %
Extraction speed 11.3 X
Track quality 100.0 %
Test CRC 51C80A9A
Copy CRC 51C80A9A
Track not present in AccurateRip database
Copy OK

Track 7

Filename G:DLKarol Beffa – Blow Up (2016) [FLAC]7 – Vincent Lucas, Lise Berthaud, Marie-Pierre Langlamet – Paysages d’ombres – II. Lent.wav

Peak level 97.4 %
Extraction speed 11.8 X
Track quality 100.0 %
Test CRC 07FDB5AD
Copy CRC 07FDB5AD
Track not present in AccurateRip database
Copy OK

Track 8

Filename G:DLKarol Beffa – Blow Up (2016) [FLAC]8 – Quatuor De Saxophones Jean-Yves Fourmeau – Fireworks – I. Avec swing.wav

Peak level 98.8 %
Extraction speed 10.6 X
Track quality 100.0 %
Test CRC 9F6EBE7A
Copy CRC 9F6EBE7A
Track not present in AccurateRip database
Copy OK

Track 9

Filename G:DLKarol Beffa – Blow Up (2016) [FLAC]9 – Quatuor De Saxophones Jean-Yves Fourmeau – Fireworks – II. Tenebreux.wav

Peak level 98.8 %
Extraction speed 11.3 X
Track quality 100.0 %
Test CRC 75E7A92F
Copy CRC 75E7A92F
Track not present in AccurateRip database
Copy OK

Track 10

Filename G:DLKarol Beffa – Blow Up (2016) [FLAC]10 – Quatuor De Saxophones Jean-Yves Fourmeau – Fireworks – III. Immuable.wav

Peak level 98.8 %
Extraction speed 10.9 X
Track quality 100.0 %
Test CRC 32C64CBB
Copy CRC 32C64CBB
Track not present in AccurateRip database
Copy OK

Track 11

Filename G:DLKarol Beffa – Blow Up (2016) [FLAC]11 – Quatuor De Saxophones Jean-Yves Fourmeau – Fireworks – IV. Rythmique.wav

Peak level 98.8 %
Extraction speed 9.4 X
Track quality 99.9 %
Test CRC FB358D36
Copy CRC FB358D36
Track not present in AccurateRip database
Copy OK

None of the tracks are present in the AccurateRip database

No errors occurred

End of status report

==== Log checksum 4147F6DED2FCF21D69EE15DE792D8F1BB4D1CC342F69C4E60A96A8C1CA920333 ====

All thanks go to the original releaser

Karol Beffa – Blow Up (2016) Download, Warez, DDL, Free, Full Album, Torrent, Legal.

Download