Kalama's Quartet – Early Hawaiian Classics 1927-1932 (1993) {Arhoolie 7028}

Download
Kalama's Quartet - Early Hawaiian Classics 1927-1932 (1993) {Arhoolie 7028}

Kalama’s Quartet – Early Hawaiian Classics 1927-1932 (1993) {Arhoolie 7028}
XLD rip (secure mode) | FLAC (tracks)+CUE+LOG -> 241 Mb | MP3 @320 -> 174 Mb
Full Artwork @ 300 dpi (png) -> 31 Mb | 5% repair rar
© 1927-1932, 1993 Arhoolie Folklyric | CD 7028
World / Folk / International / Vocal / Hawaiian / Oceanic Traditions

26 tracks recorded by Kalama’s Quartet (in both its quartet and quintet phases) between 1927-1932, as well as a 1935 recording attributed to Mike Hanapi. Varying in approach from folk balladry to uptempo jazz and hillbilly-flavored numbers, it’s ebullient music that’s most distinctive when the steel guitars are to the fore. The group also varied their vocal arrangements, but are most noted for the numbers featuring sweet falsetto vocals, such as the Hawaiian standard "Wahine Ui." It not only embodies some of the best attributes of vintage Hawaiian music, but also contains clear seeds of a high, pining sound that would be echoed by such later country and pop singers as Roy Orbison and Marty Robbins.

The Kalama Quartet performed some of the most beautiful Hawaiian music ever recorded. They were one of the few groups to ever use two acoustic steel guitars. Their four-part singing was beautiful and deeply moving. The twenty six selections on this album represent some of the finest Hawaiian vocal and steel guitar music recorded between 1927 and 1932.

If you’ve been transfixed by the modern development of Afro-pop you might be interested in an even earlier parallel. The Hawaiian music of the 1920s starkly displays the collision of Western pop with indigenous styles; it’s probably among the earliest recorded examples of such a hybrid. Combining Hawaiian lyrics melodies and vocal manners with American conventions (barbershop-type harmonizing polyphonic blues- and jazz-derived guitar playing) Kalama’s Quartet made music on the cusp of two worlds. Some of the oldest selections are the most traditional-flavored with a percussive style and more chanting than crooning. As rich as these `authentic’ pieces are it’s still fascinating to hear the group progress toward a novel more encompassing sound that the liner notes (by guitarist Bob Brozman) refer to as `hapa haole’ or ‘part white’ a term more commonly used in the islands to describe mixed-race Hawaiians. In fact music doesn’t get much catchier than `Hapa Haole Hula Girl’ (lovingly covered some 50 years later by R. Crumb’s Cheap Suit Serenaders and recently reissued too). Also available from Arhoolie is the vibrant collection Hawaiian Steel Guitar Classics which offers a fascinating look at the hillbilly swing blues and pop influences on Hawaiian guitar playing as well as some vintage virtuoso chops.

Musicians:
Mike Hanapi – tenor and falsetto voice steel guitar
William Kalama – tenor voice ukulele
Bob Nawahine – bass voice harp-guitar
Dave Kaleipua Munson – baritone voice guitar
Bob Matsu – voice and steel guitar

tracklist:
1. Medley Of Hulas
2. Inikiniki Malie (Gentle Pinches Of Wind)
3. Tu-Tu-E Tu-Tu-Hoi
4. He Manao Healoha (Thoughts Of Love)
5. Mama E (A Medley Of Hulas)
6. Wahine Ui (Beautiful Young Woman)
7. Na Moku Eha (The Four Islands)
8. Ua Like No A Like (Love Is Nutual)
9. Wai O Minnehaha (Waters Of Minnehaha)
10. Palolo
11. On The Beach Of Waikiki
12. Maile Lau Li’ili’i (Little Maile Leaves)
13. Hilo March
14. Hapa Haole Hula Girl
15. Kalamaula
16. Nu Ioka Hula (New York Hula)
17. Hoo-Hihi Oe Ke Ike Mai (Beautiful To Beh
18. He Olu La No’u (That’s Just Fine For Me)
19. Lei Ana Ika Mokihana (Wears Mokihana Le)
20. Heeia
21. Kawika
22. Kaleponi (California)
23. Lei E Hula
24. Hilo Hula
25. Hanohano Hanalei (The Glory Of Hanalei)
26. Kuu Lei (My Wreath Of Flowers)

XLD log
X Lossless Decoder version 20141129a (148.2)

XLD extraction logfile from 2016-05-16 16:32:04 -0700

Kalama’s Quartet / Early Hawaiian Classics 1927 – 1932

Used drive : HL-DT-ST DVDRW GA32N (revision KE06)
Media type : Pressed CD

Ripper mode : XLD Secure Ripper
Disable audio cache : OK for the drive with a cache less than 1375KiB
Make use of C2 pointers : NO
Read offset correction : 103
Max retry count : 100
Gap status : Analyzed, Appended (except HTOA)

TOC of the extracted CD
Track | Start | Length | Start sector | End sector
––––––––––––––––––––––––––––-
1 | 00:00:67 | 03:01:70 | 67 | 13711
2 | 03:02:62 | 03:00:40 | 13712 | 27251
3 | 06:03:27 | 03:02:30 | 27252 | 40931
4 | 09:05:57 | 03:01:33 | 40932 | 54539
5 | 12:07:15 | 03:03:10 | 54540 | 68274
6 | 15:10:25 | 02:49:37 | 68275 | 80986
7 | 17:59:62 | 02:59:73 | 80987 | 94484
8 | 20:59:60 | 03:05:02 | 94485 | 108361
9 | 24:04:62 | 02:59:45 | 108362 | 121831
10 | 27:04:32 | 03:00:68 | 121832 | 135399
11 | 30:05:25 | 03:00:05 | 135400 | 148904
12 | 33:05:30 | 03:11:32 | 148905 | 163261
13 | 36:16:62 | 03:12:38 | 163262 | 177699
14 | 39:29:25 | 02:52:40 | 177700 | 190639
15 | 42:21:65 | 03:18:40 | 190640 | 205529
16 | 45:40:30 | 03:14:40 | 205530 | 220119
17 | 48:54:70 | 03:02:35 | 220120 | 233804
18 | 51:57:30 | 03:00:72 | 233805 | 247376
19 | 54:58:27 | 02:46:38 | 247377 | 259864
20 | 57:44:65 | 02:58:40 | 259865 | 273254
21 | 60:43:30 | 02:47:37 | 273255 | 285816
22 | 63:30:67 | 03:25:38 | 285817 | 301229
23 | 66:56:30 | 03:06:37 | 301230 | 315216
24 | 70:02:67 | 03:19:18 | 315217 | 330159
25 | 73:22:10 | 02:51:17 | 330160 | 343001
26 | 76:13:27 | 02:38:18 | 343002 | 354869

AccurateRip Summary (DiscID: 004930b7-05579bd0-76127b1a)
Track 01 : OK (v1, confidence 1/3)
Track 02 : OK (v1, confidence 1/3)
Track 03 : OK (v1, confidence 1/3)
Track 04 : OK (v1, confidence 1/3)
Track 05 : OK (v1, confidence 1/3)
Track 06 : OK (v1, confidence 1/3)
Track 07 : OK (v1, confidence 1/3)
Track 08 : OK (v1, confidence 1/3)
Track 09 : OK (v1, confidence 1/3)
Track 10 : OK (v1, confidence 1/3)
Track 11 : OK (v1, confidence 1/3)
Track 12 : OK (v1, confidence 1/3)
Track 13 : OK (v1, confidence 1/3)
Track 14 : OK (v1, confidence 1/3)
Track 15 : OK (v1, confidence 1/3)
Track 16 : OK (v1, confidence 1/3)
Track 17 : OK (v1, confidence 1/3)
Track 18 : OK (v1, confidence 1/3)
Track 19 : OK (v1, confidence 1/3)
Track 20 : OK (v1, confidence 1/3)
Track 21 : OK (v1, confidence 1/3)
Track 22 : OK (v1, confidence 1/3)
Track 23 : OK (v1, confidence 1/3)
Track 24 : OK (v1, confidence 1/3)
Track 25 : OK (v1, confidence 1/3)
Track 26 : OK (v1, confidence 1/3)
->All tracks accurately ripped.

All Tracks
Album gain : -4.66 dB
Peak : 0.999359
Statistics
Read error : 0
Jitter error (maybe fixed) : 0
Retry sector count : 0
Damaged sector count : 0

Track 01
Filename : /Volumes/HD5/ Prepping to upload/Kalama’s Quartet – Early Hawaiian Classics 1927-1932 (1993) [FLAC] {Arhoolie 7028}/01 – Medley of Hulas.flac
Pre-gap length : 00:02:67

Track gain : -5.52 dB
Peak : 0.911163
CRC32 hash (test run) : C19CD83F
CRC32 hash : C19CD83F
CRC32 hash (skip zero) : F1707035
AccurateRip v1 signature : 304AB7EA
AccurateRip v2 signature : F0B66443
->Accurately ripped (v1, confidence 1/3)
Statistics
Read error : 0
Jitter error (maybe fixed) : 0
Retry sector count : 0
Damaged sector count : 0

Track 02
Filename : /Volumes/HD5/ Prepping to upload/Kalama’s Quartet – Early Hawaiian Classics 1927-1932 (1993) [FLAC] {Arhoolie 7028}/02 – Inikiniki Maile (Gentle Pinches of the Wind).flac
Pre-gap length : 00:03:09

Track gain : -5.91 dB
Peak : 0.996765
CRC32 hash (test run) : C9547289
CRC32 hash : C9547289
CRC32 hash (skip zero) : 1F60B982
AccurateRip v1 signature : 4650016B
AccurateRip v2 signature : 929E8817
->Accurately ripped (v1, confidence 1/3)
Statistics
Read error : 0
Jitter error (maybe fixed) : 0
Retry sector count : 0
Damaged sector count : 0

Track 03
Filename : /Volumes/HD5/ Prepping to upload/Kalama’s Quartet – Early Hawaiian Classics 1927-1932 (1993) [FLAC] {Arhoolie 7028}/03 – Tu-Tu-E, Tu-Tu-Hoi.flac
Pre-gap length : 00:03:12

Track gain : -4.42 dB
Peak : 0.990784
CRC32 hash (test run) : 5846B0FC
CRC32 hash : 5846B0FC
CRC32 hash (skip zero) : 85B10029
AccurateRip v1 signature : 4E278CEB
AccurateRip v2 signature : FE318E6E
->Accurately ripped (v1, confidence 1/3)
Statistics
Read error : 0
Jitter error (maybe fixed) : 0
Retry sector count : 0
Damaged sector count : 0

Track 04
Filename : /Volumes/HD5/ Prepping to upload/Kalama’s Quartet – Early Hawaiian Classics 1927-1932 (1993) [FLAC] {Arhoolie 7028}/04 – He Manao Healoha (Thoughts of Love).flac
Pre-gap length : 00:02:59

Track gain : -3.87 dB
Peak : 0.997284
CRC32 hash (test run) : A0411374
CRC32 hash : A0411374
CRC32 hash (skip zero) : 2620A8A0
AccurateRip v1 signature : FC0DE7C9
AccurateRip v2 signature : 838D0D67
->Accurately ripped (v1, confidence 1/3)
Statistics
Read error : 0
Jitter error (maybe fixed) : 0
Retry sector count : 0
Damaged sector count : 0

Track 05
Filename : /Volumes/HD5/ Prepping to upload/Kalama’s Quartet – Early Hawaiian Classics 1927-1932 (1993) [FLAC] {Arhoolie 7028}/05 – Mama E (A Medley of Hulas).flac
Pre-gap length : 00:02:27

Track gain : -4.80 dB
Peak : 0.949310
CRC32 hash (test run) : 6D720D09
CRC32 hash : 6D720D09
CRC32 hash (skip zero) : D396195A
AccurateRip v1 signature : D604CD00
AccurateRip v2 signature : 1B535785
->Accurately ripped (v1, confidence 1/3)
Statistics
Read error : 0
Jitter error (maybe fixed) : 0
Retry sector count : 0
Damaged sector count : 0

Track 06
Filename : /Volumes/HD5/ Prepping to upload/Kalama’s Quartet – Early Hawaiian Classics 1927-1932 (1993) [FLAC] {Arhoolie 7028}/06 – Wahine Ui (Beautiful Young Woman).flac
Pre-gap length : 00:03:00

Track gain : -4.48 dB
Peak : 0.997498
CRC32 hash (test run) : B9129586
CRC32 hash : B9129586
CRC32 hash (skip zero) : 9ACE6C75
AccurateRip v1 signature : 9189D240
AccurateRip v2 signature : D1196E6B
->Accurately ripped (v1, confidence 1/3)
Statistics
Read error : 0
Jitter error (maybe fixed) : 0
Retry sector count : 0
Damaged sector count : 0

Track 07
Filename : /Volumes/HD5/ Prepping to upload/Kalama’s Quartet – Early Hawaiian Classics 1927-1932 (1993) [FLAC] {Arhoolie 7028}/07 – Na Moku Eha (Kealoha) (The Four Islands).flac
Pre-gap length : 00:03:22

Track gain : -4.75 dB
Peak : 0.997406
CRC32 hash (test run) : 3CAA6C83
CRC32 hash : 3CAA6C83
CRC32 hash (skip zero) : 2EDF9A1F
AccurateRip v1 signature : 3C5F75AC
AccurateRip v2 signature : 0B8A3379
->Accurately ripped (v1, confidence 1/3)
Statistics
Read error : 0
Jitter error (maybe fixed) : 0
Retry sector count : 0
Damaged sector count : 0

Track 08
Filename : /Volumes/HD5/ Prepping to upload/Kalama’s Quartet – Early Hawaiian Classics 1927-1932 (1993) [FLAC] {Arhoolie 7028}/08 – Ua Like No A Like (Love is Mutual).flac
Pre-gap length : 00:02:65

Track gain : -4.82 dB
Peak : 0.997040
CRC32 hash (test run) : F926E4E7
CRC32 hash : F926E4E7
CRC32 hash (skip zero) : CDFC719A
AccurateRip v1 signature : 25E39EC8
AccurateRip v2 signature : 164A87D0
->Accurately ripped (v1, confidence 1/3)
Statistics
Read error : 0
Jitter error (maybe fixed) : 0
Retry sector count : 0
Damaged sector count : 0

Track 09
Filename : /Volumes/HD5/ Prepping to upload/Kalama’s Quartet – Early Hawaiian Classics 1927-1932 (1993) [FLAC] {Arhoolie 7028}/09 – Wai O Minnehaha (Waileale) (Waters of Minnehaha).flac
Pre-gap length : 00:02:64

Track gain : -4.03 dB
Peak : 0.998077
CRC32 hash (test run) : FED452BA
CRC32 hash : FED452BA
CRC32 hash (skip zero) : 272F9279
AccurateRip v1 signature : E5641C1D
AccurateRip v2 signature : 76356755
->Accurately ripped (v1, confidence 1/3)
Statistics
Read error : 0
Jitter error (maybe fixed) : 0
Retry sector count : 0
Damaged sector count : 0

Track 10
Filename : /Volumes/HD5/ Prepping to upload/Kalama’s Quartet – Early Hawaiian Classics 1927-1932 (1993) [FLAC] {Arhoolie 7028}/10 – Palolo.flac
Pre-gap length : 00:03:12

Track gain : -4.91 dB
Peak : 0.997131
CRC32 hash (test run) : 31E0CA64
CRC32 hash : 31E0CA64
CRC32 hash (skip zero) : E59664CB
AccurateRip v1 signature : 0D46B72A
AccurateRip v2 signature : 9A58B255
->Accurately ripped (v1, confidence 1/3)
Statistics
Read error : 0
Jitter error (maybe fixed) : 0
Retry sector count : 0
Damaged sector count : 0

Track 11
Filename : /Volumes/HD5/ Prepping to upload/Kalama’s Quartet – Early Hawaiian Classics 1927-1932 (1993) [FLAC] {Arhoolie 7028}/11 – On the Beach of Waikiki.flac
Pre-gap length : 00:02:55

Track gain : -5.82 dB
Peak : 0.998352
CRC32 hash (test run) : 40CD241F
CRC32 hash : 40CD241F
CRC32 hash (skip zero) : EE78352C
AccurateRip v1 signature : 229A894F
AccurateRip v2 signature : 74751C7A
->Accurately ripped (v1, confidence 1/3)
Statistics
Read error : 0
Jitter error (maybe fixed) : 0
Retry sector count : 0
Damaged sector count : 0

Track 12
Filename : /Volumes/HD5/ Prepping to upload/Kalama’s Quartet – Early Hawaiian Classics 1927-1932 (1993) [FLAC] {Arhoolie 7028}/12 – Maile Lau Li’ili’i (Little Maile Leaves).flac
Pre-gap length : 00:02:52

Track gain : -4.59 dB
Peak : 0.966980
CRC32 hash (test run) : 626335C8
CRC32 hash : 626335C8
CRC32 hash (skip zero) : 046FA3B3
AccurateRip v1 signature : 89771A12
AccurateRip v2 signature : 1762AB3E
->Accurately ripped (v1, confidence 1/3)
Statistics
Read error : 0
Jitter error (maybe fixed) : 0
Retry sector count : 0
Damaged sector count : 0

Track 13
Filename : /Volumes/HD5/ Prepping to upload/Kalama’s Quartet – Early Hawaiian Classics 1927-1932 (1993) [FLAC] {Arhoolie 7028}/13 – Hilo March.flac
Pre-gap length : 00:02:64

Track gain : -4.61 dB
Peak : 0.998474
CRC32 hash (test run) : F150E559
CRC32 hash : F150E559
CRC32 hash (skip zero) : 1245A26A
AccurateRip v1 signature : 40A7AF1E
AccurateRip v2 signature : F4F3E9C5
->Accurately ripped (v1, confidence 1/3)
Statistics
Read error : 0
Jitter error (maybe fixed) : 0
Retry sector count : 0
Damaged sector count : 0

Track 14
Filename : /Volumes/HD5/ Prepping to upload/Kalama’s Quartet – Early Hawaiian Classics 1927-1932 (1993) [FLAC] {Arhoolie 7028}/14 – Hapa Haole Hula Girl.flac
Pre-gap length : 00:02:57

Track gain : -6.21 dB
Peak : 0.999359
CRC32 hash (test run) : 72B98113
CRC32 hash : 72B98113
CRC32 hash (skip zero) : A4695C95
AccurateRip v1 signature : 6918AAF9
AccurateRip v2 signature : 0EACA038
->Accurately ripped (v1, confidence 1/3)
Statistics
Read error : 0
Jitter error (maybe fixed) : 0
Retry sector count : 0
Damaged sector count : 0

Track 15
Filename : /Volumes/HD5/ Prepping to upload/Kalama’s Quartet – Early Hawaiian Classics 1927-1932 (1993) [FLAC] {Arhoolie 7028}/15 – Kalamaula.flac
Pre-gap length : 00:03:12

Track gain : -3.75 dB
Peak : 0.997101
CRC32 hash (test run) : CD34FA5D
CRC32 hash : CD34FA5D
CRC32 hash (skip zero) : 962E0A86
AccurateRip v1 signature : D0DE2CEE
AccurateRip v2 signature : 9D8B2F4E
->Accurately ripped (v1, confidence 1/3)
Statistics
Read error : 0
Jitter error (maybe fixed) : 0
Retry sector count : 0
Damaged sector count : 0

Track 16
Filename : /Volumes/HD5/ Prepping to upload/Kalama’s Quartet – Early Hawaiian Classics 1927-1932 (1993) [FLAC] {Arhoolie 7028}/16 – Nu Ioka Hula (New York Hula).flac
Pre-gap length : 00:02:65

Track gain : -3.51 dB
Peak : 0.995026
CRC32 hash (test run) : C63DF4AB
CRC32 hash : C63DF4AB
CRC32 hash (skip zero) : B3879473
AccurateRip v1 signature : 1B33E46E
AccurateRip v2 signature : B196674E
->Accurately ripped (v1, confidence 1/3)
Statistics
Read error : 0
Jitter error (maybe fixed) : 0
Retry sector count : 0
Damaged sector count : 0

Track 17
Filename : /Volumes/HD5/ Prepping to upload/Kalama’s Quartet – Early Hawaiian Classics 1927-1932 (1993) [FLAC] {Arhoolie 7028}/17 – Hoo-Hihi Oe Ke Ike Mai (You’re Beautiful to Behold).flac
Pre-gap length : 00:02:67

Track gain : -4.92 dB
Peak : 0.996552
CRC32 hash (test run) : BF88175C
CRC32 hash : BF88175C
CRC32 hash (skip zero) : 5EED47DC
AccurateRip v1 signature : 76F94DD9
AccurateRip v2 signature : 6162532C
->Accurately ripped (v1, confidence 1/3)
Statistics
Read error : 0
Jitter error (maybe fixed) : 0
Retry sector count : 0
Damaged sector count : 0

Track 18
Filename : /Volumes/HD5/ Prepping to upload/Kalama’s Quartet – Early Hawaiian Classics 1927-1932 (1993) [FLAC] {Arhoolie 7028}/18 – He Olu La No’u (That’s Just Fine for Me).flac
Pre-gap length : 00:02:72

Track gain : -5.76 dB
Peak : 0.997253
CRC32 hash (test run) : 3A3DF69B
CRC32 hash : 3A3DF69B
CRC32 hash (skip zero) : DE972803
AccurateRip v1 signature : CA450EA0
AccurateRip v2 signature : A9F9DFA1
->Accurately ripped (v1, confidence 1/3)
Statistics
Read error : 0
Jitter error (maybe fixed) : 0
Retry sector count : 0
Damaged sector count : 0

Track 19
Filename : /Volumes/HD5/ Prepping to upload/Kalama’s Quartet – Early Hawaiian Classics 1927-1932 (1993) [FLAC] {Arhoolie 7028}/19 – Lei Ana Ika Mokihana (Mai Ka’i Kaua’i) (Wears the Mokihana Lei).flac
Pre-gap length : 00:02:44

Track gain : -3.78 dB
Peak : 0.997528
CRC32 hash (test run) : 89E9DC0A
CRC32 hash : 89E9DC0A
CRC32 hash (skip zero) : 8DB5FC36
AccurateRip v1 signature : 0E84F73A
AccurateRip v2 signature : CEAA948B
->Accurately ripped (v1, confidence 1/3)
Statistics
Read error : 0
Jitter error (maybe fixed) : 0
Retry sector count : 0
Damaged sector count : 0

Track 20
Filename : /Volumes/HD5/ Prepping to upload/Kalama’s Quartet – Early Hawaiian Classics 1927-1932 (1993) [FLAC] {Arhoolie 7028}/20 – Heeia.flac
Pre-gap length : 00:03:07

Track gain : -2.75 dB
Peak : 0.996490
CRC32 hash (test run) : 190D993B
CRC32 hash : 190D993B
CRC32 hash (skip zero) : 5204C854
AccurateRip v1 signature : DA4C1E4A
AccurateRip v2 signature : 88361639
->Accurately ripped (v1, confidence 1/3)
Statistics
Read error : 0
Jitter error (maybe fixed) : 0
Retry sector count : 0
Damaged sector count : 0

Track 21
Filename : /Volumes/HD5/ Prepping to upload/Kalama’s Quartet – Early Hawaiian Classics 1927-1932 (1993) [FLAC] {Arhoolie 7028}/21 – Kawika – Liliu E.flac
Pre-gap length : 00:02:72

Track gain : -2.51 dB
Peak : 0.996674
CRC32 hash (test run) : 1D987049
CRC32 hash : 1D987049
CRC32 hash (skip zero) : C2653E01
AccurateRip v1 signature : 1D661CF5
AccurateRip v2 signature : 31941951
->Accurately ripped (v1, confidence 1/3)
Statistics
Read error : 0
Jitter error (maybe fixed) : 0
Retry sector count : 0
Damaged sector count : 0

Track 22
Filename : /Volumes/HD5/ Prepping to upload/Kalama’s Quartet – Early Hawaiian Classics 1927-1932 (1993) [FLAC] {Arhoolie 7028}/22 – Kaleponi (California).flac
Pre-gap length : 00:02:57

Track gain : -2.27 dB
Peak : 0.997681
CRC32 hash (test run) : 0466B206
CRC32 hash : 0466B206
CRC32 hash (skip zero) : 5FAB4E9E
AccurateRip v1 signature : 95B9C27B
AccurateRip v2 signature : 88D7BBD9
->Accurately ripped (v1, confidence 1/3)
Statistics
Read error : 0
Jitter error (maybe fixed) : 0
Retry sector count : 0
Damaged sector count : 0

Track 23
Filename : /Volumes/HD5/ Prepping to upload/Kalama’s Quartet – Early Hawaiian Classics 1927-1932 (1993) [FLAC] {Arhoolie 7028}/23 – Lei E Hula.flac
Pre-gap length : 00:02:55

Track gain : -3.94 dB
Peak : 0.996643
CRC32 hash (test run) : DBA4B1D4
CRC32 hash : DBA4B1D4
CRC32 hash (skip zero) : A0D91686
AccurateRip v1 signature : 1B2241D2
AccurateRip v2 signature : 9885EC62
->Accurately ripped (v1, confidence 1/3)
Statistics
Read error : 0
Jitter error (maybe fixed) : 0
Retry sector count : 0
Damaged sector count : 0

Track 24
Filename : /Volumes/HD5/ Prepping to upload/Kalama’s Quartet – Early Hawaiian Classics 1927-1932 (1993) [FLAC] {Arhoolie 7028}/24 – Hilo Hula (Hilo Hanakahi).flac
Pre-gap length : 00:03:12

Track gain : -3.74 dB
Peak : 0.997162
CRC32 hash (test run) : 98728A1B
CRC32 hash : 98728A1B
CRC32 hash (skip zero) : 70E1E09D
AccurateRip v1 signature : 3EA5ADCA
AccurateRip v2 signature : 45CC936B
->Accurately ripped (v1, confidence 1/3)
Statistics
Read error : 0
Jitter error (maybe fixed) : 0
Retry sector count : 0
Damaged sector count : 0

Track 25
Filename : /Volumes/HD5/ Prepping to upload/Kalama’s Quartet – Early Hawaiian Classics 1927-1932 (1993) [FLAC] {Arhoolie 7028}/25 – Hanohano Hanalei (The Glory of Hanalei).flac
Pre-gap length : 00:02:30

Track gain : -3.11 dB
Peak : 0.996643
CRC32 hash (test run) : 66FA4237
CRC32 hash : 66FA4237
CRC32 hash (skip zero) : CAD7B7B2
AccurateRip v1 signature : 6058E59A
AccurateRip v2 signature : 1A4D54EC
->Accurately ripped (v1, confidence 1/3)
Statistics
Read error : 0
Jitter error (maybe fixed) : 0
Retry sector count : 0
Damaged sector count : 0

Track 26
Filename : /Volumes/HD5/ Prepping to upload/Kalama’s Quartet – Early Hawaiian Classics 1927-1932 (1993) [FLAC] {Arhoolie 7028}/26 – Kuu Lei (My Wreath of Flowers).flac
Pre-gap length : 00:03:19

Track gain : -4.26 dB
Peak : 0.694977
CRC32 hash (test run) : 40721DE0
CRC32 hash : 40721DE0
CRC32 hash (skip zero) : B048FDDB
AccurateRip v1 signature : 759361C5
AccurateRip v2 signature : 87EAD206
->Accurately ripped (v1, confidence 1/3)
Statistics
Read error : 0
Jitter error (maybe fixed) : 0
Retry sector count : 0
Damaged sector count : 0

No errors occurred

End of status report

––-BEGIN XLD SIGNATURE––-
NMaiJEpWOt7_wg_W8kxrgxYUfM2Re6G.Qd4tPbtVfTyK.BbNJvflGzNZgpt6VnOxL1JWkZVcKgvie8l_TTExuWvQdb0UcFieJz1Yzg4
––-END XLD SIGNATURE––-

Kalama's Quartet - Early Hawaiian Classics 1927-1932 (1993) {Arhoolie 7028}

Kalama's Quartet - Early Hawaiian Classics 1927-1932 (1993) {Arhoolie 7028}

===

Kalama's Quartet – Early Hawaiian Classics 1927-1932 (1993) {Arhoolie 7028} Download, Warez, DDL, Free, Full Album, Torrent, Legal.

Download