Kajagoogoo & Limahl – The Very Best Of (2003)

Download
Kajagoogoo & Limahl - The Very Best Of (2003)

Kajagoogoo & Limahl – The Very Best Of (2003)
EAC Rip | FLAC (Tracks) +CUE, LOG | 543 MB | Covers Included
Genre: Synthpop | Label: Emi Gold | Catalog Number: 7243 595390 2

Put "Too Shy" and "Never Ending Story" on your Kajagoogoo/Limahl compilation and you’re covered. Remembering "Ooh to Be Ah," "Hang on Now," and "Big Apple" shows you’ve done your homework. The Very Best of Kajagoogoo covers all the major and minor points, and fills the rest of the compilation with lesser album tracks – half from Limahl, half from Kajagoogoo.

EAC Log
Exact Audio Copy V1.0 beta 3 from 29. August 2011

EAC extraction logfile from 9. January 2014, 19:03

Kajagoogoo and Limahl / The Very Best Of

Used drive : PLEXTOR DVDR PX-891SA Adapter: 0 ID: 2

Read mode : Secure
Utilize accurate stream : Yes
Defeat audio cache : Yes
Make use of C2 pointers : No

Read offset correction : 6
Overread into Lead-In and Lead-Out : No
Fill up missing offset samples with silence : Yes
Delete leading and trailing silent blocks : No
Null samples used in CRC calculations : Yes
Used interface : Native Win32 interface for Win NT & 2000
Gap handling : Appended to previous track

Used output format : User Defined Encoder
Selected bitrate : 1024 kBit/s
Quality : High
Add ID3 tag : No
Command line compressor : C:Program Files (x86)Exact Audio CopyFLACFLAC.EXE
Additional command line options : -0 -V -T "ARTIST=%artist%" -T "TITLE=%title%" -T "ALBUM=%albumtitle%" -T "DATE=%year%" -T "TRACKNUMBER=%tracknr%" -T "TOTALTRACKS=%numtracks%" -T "GENRE=%genre%" -T "COMMENT=Naftamusic Release!" %source%

TOC of the extracted CD

Track | Start | Length | Start sector | End sector
––––––––––––––––––––––––––––-
1 | 0:00.00 | 3:45.05 | 0 | 16879
2 | 3:45.05 | 3:35.23 | 16880 | 33027
3 | 7:20.28 | 3:22.12 | 33028 | 48189
4 | 10:42.40 | 4:10.72 | 48190 | 67011
5 | 14:53.37 | 3:32.36 | 67012 | 82947
6 | 18:25.73 | 4:01.54 | 82948 | 101076
7 | 22:27.52 | 3:24.35 | 101077 | 116411
8 | 25:52.12 | 4:27.61 | 116412 | 136497
9 | 30:19.73 | 3:54.31 | 136498 | 154078
10 | 34:14.29 | 3:29.44 | 154079 | 169797
11 | 37:43.73 | 4:45.30 | 169798 | 191202
12 | 42:29.28 | 3:43.15 | 191203 | 207942
13 | 46:12.43 | 4:09.32 | 207943 | 226649
14 | 50:22.00 | 4:05.21 | 226650 | 245045
15 | 54:27.21 | 4:27.51 | 245046 | 265121
16 | 58:54.72 | 4:28.02 | 265122 | 285223
17 | 63:22.74 | 4:12.07 | 285224 | 304130
18 | 67:35.06 | 3:56.07 | 304131 | 321837
19 | 71:31.13 | 3:46.60 | 321838 | 338847

Track 1

Filename F:Nafta ReleasesKajagoogoo and Limahl – The Very Best Of (2003)[FLAC] – Naftamusic1 – Kajagoogoo – Too Shy.wav

Pre-gap length 0:00:02.00

Peak level 97.9 %
Extraction speed 4.8 X
Track quality 99.9 %
Test CRC 7E35FB03
Copy CRC 7E35FB03
Accurately ripped (confidence 3) [B35100B6] (AR v2)
Copy OK

Track 2

Filename F:Nafta ReleasesKajagoogoo and Limahl – The Very Best Of (2003)[FLAC] – Naftamusic2 – Kajagoogoo – Ooh To Be Ah.wav

Pre-gap length 0:00:00.62

Peak level 97.9 %
Extraction speed 6.2 X
Track quality 100.0 %
Test CRC 32073ABE
Copy CRC 32073ABE
Accurately ripped (confidence 3) [C118BDCA] (AR v2)
Copy OK

Track 3

Filename F:Nafta ReleasesKajagoogoo and Limahl – The Very Best Of (2003)[FLAC] – Naftamusic3 – Kajagoogoo – Hang On Now.wav

Pre-gap length 0:00:01.03

Peak level 87.2 %
Extraction speed 5.3 X
Track quality 99.9 %
Test CRC 56AFB9B3
Copy CRC 56AFB9B3
Accurately ripped (confidence 3) [1BB9D07D] (AR v2)
Copy OK

Track 4

Filename F:Nafta ReleasesKajagoogoo and Limahl – The Very Best Of (2003)[FLAC] – Naftamusic4 – Kajagoogoo – Big Apple.wav

Pre-gap length 0:00:00.67

Peak level 97.9 %
Extraction speed 6.0 X
Track quality 99.9 %
Test CRC 58692B9E
Copy CRC 58692B9E
Accurately ripped (confidence 3) [DA8E293C] (AR v2)
Copy OK

Track 5

Filename F:Nafta ReleasesKajagoogoo and Limahl – The Very Best Of (2003)[FLAC] – Naftamusic5 – Kajagoogoo – The Lion’s Mouth.wav

Pre-gap length 0:00:01.04

Peak level 87.2 %
Extraction speed 6.0 X
Track quality 99.9 %
Test CRC 47451568
Copy CRC 47451568
Accurately ripped (confidence 3) [16FB0C26] (AR v2)
Copy OK

Track 6

Filename F:Nafta ReleasesKajagoogoo and Limahl – The Very Best Of (2003)[FLAC] – Naftamusic6 – Kajagoogoo – Turn Your Back On Me.wav

Pre-gap length 0:00:00.61

Peak level 87.2 %
Extraction speed 7.9 X
Track quality 100.0 %
Test CRC 9C40FB9B
Copy CRC 9C40FB9B
Accurately ripped (confidence 3) [73528A08] (AR v2)
Copy OK

Track 7

Filename F:Nafta ReleasesKajagoogoo and Limahl – The Very Best Of (2003)[FLAC] – Naftamusic7 – Kajagoogoo – Shouldn’t Do That.wav

Pre-gap length 0:00:01.20

Peak level 97.9 %
Extraction speed 8.2 X
Track quality 100.0 %
Test CRC AE39907E
Copy CRC AE39907E
Accurately ripped (confidence 3) [C41E4C62] (AR v2)
Copy OK

Track 8

Filename F:Nafta ReleasesKajagoogoo and Limahl – The Very Best Of (2003)[FLAC] – Naftamusic8 – Kajagoogoo – Charm Of A Gun.wav

Pre-gap length 0:00:01.51

Peak level 97.9 %
Extraction speed 8.8 X
Track quality 100.0 %
Test CRC E5313E26
Copy CRC E5313E26
Accurately ripped (confidence 3) [0E9918F4] (AR v2)
Copy OK

Track 9

Filename F:Nafta ReleasesKajagoogoo and Limahl – The Very Best Of (2003)[FLAC] – Naftamusic9 – Limahl – Only For Love.wav

Pre-gap length 0:00:01.23

Peak level 97.9 %
Extraction speed 8.9 X
Track quality 100.0 %
Test CRC B8D9150F
Copy CRC B8D9150F
Accurately ripped (confidence 3) [892B5971] (AR v2)
Copy OK

Track 10

Filename F:Nafta ReleasesKajagoogoo and Limahl – The Very Best Of (2003)[FLAC] – Naftamusic10 – Limahl – Never Ending Story.wav

Pre-gap length 0:00:01.06

Peak level 97.9 %
Extraction speed 9.2 X
Track quality 100.0 %
Test CRC E62C3E26
Copy CRC E62C3E26
Accurately ripped (confidence 3) [2FB533AE] (AR v2)
Copy OK

Track 11

Filename F:Nafta ReleasesKajagoogoo and Limahl – The Very Best Of (2003)[FLAC] – Naftamusic11 – Limahl – I Was A Fool.wav

Pre-gap length 0:00:00.43

Peak level 87.2 %
Extraction speed 10.0 X
Track quality 100.0 %
Test CRC 7A62E8D9
Copy CRC 7A62E8D9
Accurately ripped (confidence 3) [EE0A575F] (AR v2)
Copy OK

Track 12

Filename F:Nafta ReleasesKajagoogoo and Limahl – The Very Best Of (2003)[FLAC] – Naftamusic12 – Limahl – Inside To Outside.wav

Pre-gap length 0:00:00.53

Peak level 87.2 %
Extraction speed 9.9 X
Track quality 100.0 %
Test CRC 823A28D3
Copy CRC 823A28D3
Accurately ripped (confidence 3) [E12EBDB6] (AR v2)
Copy OK

Track 13

Filename F:Nafta ReleasesKajagoogoo and Limahl – The Very Best Of (2003)[FLAC] – Naftamusic13 – Kajagoogoo – Monochromatic.wav

Pre-gap length 0:00:00.33

Peak level 87.2 %
Extraction speed 10.3 X
Track quality 100.0 %
Test CRC D2AFF074
Copy CRC D2AFF074
Accurately ripped (confidence 3) [F780D48E] (AR v2)
Copy OK

Track 14

Filename F:Nafta ReleasesKajagoogoo and Limahl – The Very Best Of (2003)[FLAC] – Naftamusic14 – Kajagoogoo – Take Another View.wav

Pre-gap length 0:00:00.28

Peak level 87.2 %
Extraction speed 10.6 X
Track quality 100.0 %
Test CRC A90EAE3A
Copy CRC A90EAE3A
Accurately ripped (confidence 3) [DC92ABFD] (AR v2)
Copy OK

Track 15

Filename F:Nafta ReleasesKajagoogoo and Limahl – The Very Best Of (2003)[FLAC] – Naftamusic15 – Kajagoogoo – Your Love.wav

Pre-gap length 0:00:00.36

Peak level 97.9 %
Extraction speed 11.0 X
Track quality 100.0 %
Test CRC 96299088
Copy CRC 96299088
Accurately ripped (confidence 3) [518C74E3] (AR v2)
Copy OK

Track 16

Filename F:Nafta ReleasesKajagoogoo and Limahl – The Very Best Of (2003)[FLAC] – Naftamusic16 – Limahl – Shock.wav

Pre-gap length 0:00:00.54

Peak level 97.9 %
Extraction speed 11.3 X
Track quality 100.0 %
Test CRC 2A482C3D
Copy CRC 2A482C3D
Accurately ripped (confidence 3) [50615CC9] (AR v2)
Copy OK

Track 17

Filename F:Nafta ReleasesKajagoogoo and Limahl – The Very Best Of (2003)[FLAC] – Naftamusic17 – Limahl – Love In Your Eyes.wav

Pre-gap length 0:00:00.50

Peak level 87.2 %
Extraction speed 11.5 X
Track quality 100.0 %
Test CRC D9A0C1E3
Copy CRC D9A0C1E3
Accurately ripped (confidence 3) [1EE1A5A8] (AR v2)
Copy OK

Track 18

Filename F:Nafta ReleasesKajagoogoo and Limahl – The Very Best Of (2003)[FLAC] – Naftamusic18 – Limahl – Too Much Trouble.wav

Pre-gap length 0:00:01.03

Peak level 97.9 %
Extraction speed 11.1 X
Track quality 100.0 %
Test CRC 22F66BBF
Copy CRC 22F66BBF
Accurately ripped (confidence 3) [2A16DBDC] (AR v2)
Copy OK

Track 19

Filename F:Nafta ReleasesKajagoogoo and Limahl – The Very Best Of (2003)[FLAC] – Naftamusic19 – Limahl – Tar Beach.wav

Pre-gap length 0:00:00.41

Peak level 97.9 %
Extraction speed 8.1 X
Track quality 100.0 %
Test CRC 47A9A88B
Copy CRC 47A9A88B
Accurately ripped (confidence 3) [2018927C] (AR v2)
Copy OK

All tracks accurately ripped

No errors occurred

End of status report

==== Log checksum A48DC829989CF0BA60D1A7BD6F6A1728A5E2EFC2B2FF5D672836FB997BB5D257 ====

Tracklist:
01 – Kajagoogoo – Too Shy
02 – Kajagoogoo – Ooh To Be Ah
03 – Kajagoogoo – Hang On Now
04 – Kajagoogoo – Big Apple
05 – Kajagoogoo – The Lion’s Mouth
06 – Kajagoogoo – Turn Your Back On Me
07 – Kajagoogoo – Shouldn’t Do That
08 – Kajagoogoo – Charm Of A Gun
09 – Limahl – Only For Love
10 – Limahl – Never Ending Story
11 – Limahl – I Was A Fool
12 – Limahl – Inside To Outside
13 – Kajagoogoo – Monochromatic
14 – Kajagoogoo – Take Another View
15 – Limahl – Your Love
16 – Limahl – Shock
17 – Limahl – Love In Your Eyes
18 – Limahl – Too Much Trouble
19 – Limahl – Tar Beach

Kajagoogoo & Limahl – The Very Best Of (2003) Download, Warez, DDL, Free, Full Album, Torrent, Legal.

Download