Justin Hayward – Night Flight (1980)

Download
Justin Hayward - Night Flight (1980)

Justin Hayward – Night Flight (1980)
EAC Rip | FLAC: Tracks+Cue+Log | 269 Mb | MP3 CBR 320 kbps | 107 Mb | Scans | Time: 44:25
Threshold Records | 820 555-2
Classic Rock, Soft/Art Rock

Night Flight is a studio album by Moody Blues frontman Justin Hayward, released on Decca Records in 1980. It was reissued on CD in September 1989. The album came about as a result of Hayward’s involvement in Jeff Wayne’s musical adaptation of War of the Worlds. Wayne produced and arranged the album, which proved to be one of the lengthiest recording experiences of Hayward’s career. The music was mostly pop and dance oriented, and most of the tracks were romantic love songs. It was not a favourite with Moody Blues fans, and was not a commercial success.

Justin Hayward - Night Flight (1980)
Justin Hayward
Wikipedia | Amazon

Track Listing

01. Night Flight (05:24)
02. Maybe It’s Just Love (04:49)
03. Crazy Lovers (05:32)
04. Penumbra Moon (04:12)
05. Nearer To You (03:42)
06. A Face In The Crowd (04:02)
07. Suitcase (03:37)
08. I’m Sorry (03:11)
09. It’s Not On (04:10)
10. Bedtime Stories (05:46)

Produced by Jeff Wayne

Personnel

• Justin Hayward: vocals and guitars; bass and drums on "Suitcase"
• Jeff Wayne: piano on "Night Flight"
• Jo Partridge: guitars
• Ken Freeman: keyboards
• Herbie Flowers: bass
• Barry de Souza: drums
• Stuart Elliott: drums
• Roy Jones: percussion
• Tony Carr: percussion
• Doreen Chanter: female vocals on "Bedtime Stories" and "Nearer To You"
• Irene Chanter: female vocals on "Bedtime Stories" and "Nearer To You"
• Dave Holland: drums on "Crazy Lovers"

EAC Log
Exact Audio Copy V0.99 prebeta 4 from 23. January 2008

EAC extraction logfile from 6. May 2009, 23:43

Justin Hayward / Night Flight

Used drive : SONY DVD RW DRU-840A Adapter: 1 ID: 0

Read mode : Secure
Utilize accurate stream : Yes
Defeat audio cache : Yes
Make use of C2 pointers : No

Read offset correction : 6
Overread into Lead-In and Lead-Out : No
Fill up missing offset samples with silence : Yes
Delete leading and trailing silent blocks : No
Null samples used in CRC calculations : Yes
Used interface : Native Win32 interface for Win NT & 2000
Gap handling : Appended to previous track

Used output format : User Defined Encoder
Selected bitrate : 320 kBit/s
Quality : High
Add ID3 tag : No
Command line compressor : C:Program FilesFLACflac.exe
Additional command line options : -8 -V -T "ARTIST=%a" -T "TITLE=%t" -T "ALBUM=%g" -T "DATE=%y" -T "TRACKNUMBER=%n" -T "GENRE=%m" -T "COMMENT=EAC FLAC -8" %s

TOC of the extracted CD

Track | Start | Length | Start sector | End sector
––––––––––––––––––––––––––––-
1 | 0:00.33 | 5:23.57 | 33 | 24314
2 | 5:24.15 | 4:48.55 | 24315 | 45969
3 | 10:12.70 | 5:31.53 | 45970 | 70847
4 | 15:44.48 | 4:12.07 | 70848 | 89754
5 | 19:56.55 | 3:42.28 | 89755 | 106432
6 | 23:39.08 | 4:01.50 | 106433 | 124557
7 | 27:40.58 | 3:36.70 | 124558 | 140827
8 | 31:17.53 | 3:10.60 | 140828 | 155137
9 | 34:28.38 | 4:10.17 | 155138 | 173904
10 | 38:38.55 | 5:45.68 | 173905 | 199847

Track 1

Filename C:FlowerJewelEAC RippedJustin Hayward – Night Flight (1980) [FLAC]1 – Night Flight.wav

Pre-gap length 0:00:02.33

Peak level 92.7 %
Track quality 99.9 %
Test CRC B9CB62C5
Copy CRC B9CB62C5
Accurately ripped (confidence 1) [A4CFE403]
Copy OK

Track 2

Filename C:FlowerJewelEAC RippedJustin Hayward – Night Flight (1980) [FLAC]2 – Maybe It’s Just Love.wav

Peak level 100.0 %
Track quality 100.0 %
Test CRC 64EBD7CB
Copy CRC 64EBD7CB
Accurately ripped (confidence 1) [3D7DFDE8]
Copy OK

Track 3

Filename C:FlowerJewelEAC RippedJustin Hayward – Night Flight (1980) [FLAC]3 – Crazy Lovers.wav

Pre-gap length 0:00:02.67

Peak level 81.6 %
Track quality 99.9 %
Test CRC DFC92154
Copy CRC DFC92154
Accurately ripped (confidence 1) [551372BA]
Copy OK

Track 4

Filename C:FlowerJewelEAC RippedJustin Hayward – Night Flight (1980) [FLAC]4 – Penumbra Moon.wav

Peak level 93.0 %
Track quality 100.0 %
Test CRC 49A6D872
Copy CRC 49A6D872
Accurately ripped (confidence 1) [6FE574F8]
Copy OK

Track 5

Filename C:FlowerJewelEAC RippedJustin Hayward – Night Flight (1980) [FLAC]5 – Nearer to You.wav

Pre-gap length 0:00:01.10

Peak level 83.4 %
Track quality 100.0 %
Test CRC EBDD8FD9
Copy CRC EBDD8FD9
Accurately ripped (confidence 1) [2A3DEEE8]
Copy OK

Track 6

Filename C:FlowerJewelEAC RippedJustin Hayward – Night Flight (1980) [FLAC]6 – A Face in the Crowd.wav

Pre-gap length 0:00:00.70

Peak level 86.4 %
Track quality 100.0 %
Test CRC E68E1B3D
Copy CRC E68E1B3D
Accurately ripped (confidence 1) [0315A845]
Copy OK

Track 7

Filename C:FlowerJewelEAC RippedJustin Hayward – Night Flight (1980) [FLAC]7 – Suitcase.wav

Pre-gap length 0:00:02.00

Peak level 78.8 %
Track quality 100.0 %
Test CRC 86DCBEF4
Copy CRC 86DCBEF4
Accurately ripped (confidence 1) [5FEAE38F]
Copy OK

Track 8

Filename C:FlowerJewelEAC RippedJustin Hayward – Night Flight (1980) [FLAC]8 – I’m Sorry.wav

Peak level 80.9 %
Track quality 100.0 %
Test CRC 188C24F7
Copy CRC 188C24F7
Accurately ripped (confidence 1) [38D2D15C]
Copy OK

Track 9

Filename C:FlowerJewelEAC RippedJustin Hayward – Night Flight (1980) [FLAC]9 – It’s Not On.wav

Pre-gap length 0:00:00.65

Peak level 89.7 %
Track quality 100.0 %
Test CRC 5478C4B2
Copy CRC 5478C4B2
Accurately ripped (confidence 1) [49EA4BF1]
Copy OK

Track 10

Filename C:FlowerJewelEAC RippedJustin Hayward – Night Flight (1980) [FLAC]10 – Bedtime Stories.wav

Pre-gap length 0:00:00.57

Peak level 100.0 %
Track quality 100.0 %
Test CRC 6FC6313A
Copy CRC 6FC6313A
Accurately ripped (confidence 1) [72AEAEF9]
Copy OK

All tracks accurately ripped

No errors occurred

End of status report

Many thanks to the original uploader: SeventhSojourn

The Moody Blues and many, many more!
The Moody Blues 1969 On The Threshold Of A Dream [Japan mini LP, 2002]
The Moody Blues 2000 Hall Of Fame
The Moody Blues 2007 Collected [3CD]

Justin Hayward & John Lodge 1975 Blue Jays
Justin Hayward 1977 Songwriter [Remastered 2004]

Patrick Moraz 1976 The Story Of I [Japanese Ed. 1990]
Patrick Moraz 1977 Out In The Sun [Remastered 2006]
Patrick Moraz 2009 Change Of Space

Mainhorse 1971 Mainhorse [Remastered 2006]
David Kubinec’s Mainhorse Airline 2007 The Geneva Tapes

……
Welcome to My Blog for more wonderful music!
……

Justin Hayward – Night Flight (1980) Download, Warez, DDL, Free, Full Album, Torrent, Legal.

Download