June Christy – June Christy Sings The Standards (2002)

Download
June Christy - June Christy Sings The Standards (2002)

June Christy – June Christy Sings The Standards (2002)
EAC | FLAC | Tracks (Cue&Log) ~ 344 Mb | Mp3 (CBR320) ~ 153 Mb | Scans included
Vocal Jazz, Standarts, Vocal Pop, Cool | Label: EMI | # 7243 539399 2 2 | 01:05:53

This solid collection may strike June Christy fans as a little ironic because rather than stock her albums with standards the way that most of her peers did, the West Coast jazz vocalist was known for unearthing new and obscure songs. It’s not that Christy neglected standards (in fact she recorded dozens of them over her 12-year run with Capitol Records), it’s just that one gets the feeling that when she sang something like "I’m Glad There Is You" it was because she had something fresh or unique to bring to it. And she does put her own personal and idiosyncratic stamp on 20 of the songs here while two tunes haven’t been recorded enough to become standards (the undeservedly obscure "Cry Like the Wind" and the swing-era novelty "Bei Mir Bist Du Schon"). So, when you add the song selection to the fact that this disc features the vocalist in orchestral, small-group jazz and big-band settings, the disc not only offers a much more complete portrait of the artist than the title suggests, but this is also one of the strongest entries in EMI’s Sings the Standards series.

Review by Nick Dedina, Allmusic.com

June Christy - June Christy Sings The Standards (2002)

June Christy at Allmusic
June Christy at Wiki

Tracklist:

01. For All We Know (2:49)
02. Do Nothin’ Till You Hear From Me (4:07)
03. Fly Me To The Moon (In Other Words) (3:15)
04. Blue Moon (3:12)
05. They Can’t Take That Away From Me (2:41)
06. It Don’t Mean A Thing (If It Ain’t Got That Swing) (1:53)
07. Stompin’ At The Savoy (2:31)
08. Baubles, Bangles And Beads (2:29)
09. The More I See You (3:04)
10. I’m Glad There Is You (2:41)
11. Willow Weep For Me (3:16)
12. Cry Like The Wind (2:38)
13. Bei Mir Bist Du Schon (2:45)
14. Swinging On A Star (2:33)
15. Give A Little Whistle (2:27)
16. When You Wish Upon A Star (2:34)
17. Bewitched, Bothered And Bewildered (4:57)
18. How High The Moon (2:34)
19. I Get Along Without You Very Well (3:10)
20. The Song Is You (4:22)
21. Misty (3:06)
22. The Way You Look Tonight (2:49)

EAC log
Exact Audio Copy V1.1 from 23. June 2015

EAC extraction logfile from 23. October 2016, 18:16

June Christy / Sings The Standards

Used drive : PBDS CD-ROM DH-48N1S Adapter: 1 ID: 0

Read mode : Secure
Utilize accurate stream : Yes
Defeat audio cache : Yes
Make use of C2 pointers : No

Read offset correction : 6
Overread into Lead-In and Lead-Out : No
Fill up missing offset samples with silence : Yes
Delete leading and trailing silent blocks : No
Null samples used in CRC calculations : Yes
Used interface : Native Win32 interface for Win NT & 2000
Gap handling : Appended to previous track

Used output format : User Defined Encoder
Selected bitrate : 768 kBit/s
Quality : High
Add ID3 tag : No
Command line compressor : C:Program Files (x86)Exact Audio CopyFLACFLAC.EXE
Additional command line options : -8 -V -T "ARTIST=%artist%" -T "TITLE=%title%" -T "ALBUM=%albumtitle%" -T "DATE=%year%" -T "TRACKNUMBER=%tracknr%" -T "GENRE=%genre%" -T "PERFORMER=%albuminterpret%" -T "COMPOSER=%composer%" %haslyrics%–tag-from-file=LYRICS="%lyricsfile%"%haslyrics% -T "ALBUMARTIST=%albumartist%" -T "DISCNUMBER=%cdnumber%" -T "TOTALDISCS=%totalcds%" -T "TOTALTRACKS=%numtracks%" -T "COMMENT=%comment%" %source% -o %dest%

TOC of the extracted CD

Track | Start | Length | Start sector | End sector
––––––––––––––––––––––––––––-
1 | 0:00.00 | 2:48.52 | 0 | 12651
2 | 2:48.52 | 4:06.43 | 12652 | 31144
3 | 6:55.20 | 3:15.05 | 31145 | 45774
4 | 10:10.25 | 3:12.00 | 45775 | 60174
5 | 13:22.25 | 2:41.15 | 60175 | 72264
6 | 16:03.40 | 1:53.15 | 72265 | 80754
7 | 17:56.55 | 2:31.17 | 80755 | 92096
8 | 20:27.72 | 2:29.10 | 92097 | 103281
9 | 22:57.07 | 3:04.28 | 103282 | 117109
10 | 26:01.35 | 2:40.57 | 117110 | 129166
11 | 28:42.17 | 3:16.03 | 129167 | 143869
12 | 31:58.20 | 2:38.35 | 143870 | 155754
13 | 34:36.55 | 2:44.70 | 155755 | 168124
14 | 37:21.50 | 2:33.20 | 168125 | 179619
15 | 39:54.70 | 2:27.25 | 179620 | 190669
16 | 42:22.20 | 2:33.60 | 190670 | 202204
17 | 44:56.05 | 4:56.42 | 202205 | 224446
18 | 49:52.47 | 2:34.13 | 224447 | 236009
19 | 52:26.60 | 3:09.47 | 236010 | 250231
20 | 55:36.32 | 4:21.58 | 250232 | 269864
21 | 59:58.15 | 3:06.20 | 269865 | 283834
22 | 63:04.35 | 2:48.60 | 283835 | 296494

Track 1

Filename C:EACRips1 – For All We Know.wav

Pre-gap length 0:00:02.00

Peak level 62.5 %
Extraction speed 1.7 X
Track quality 100.0 %
Test CRC B92E4361
Copy CRC B92E4361
Track not present in AccurateRip database
Copy OK

Track 2

Filename C:EACRips2 – Do Nothin’ Till You Hear From Me.wav

Peak level 75.8 %
Extraction speed 4.6 X
Track quality 100.0 %
Test CRC 970DB914
Copy CRC 970DB914
Track not present in AccurateRip database
Copy OK

Track 3

Filename C:EACRips3 – Fly Me To The Moon (In Other Words).wav

Pre-gap length 0:00:01.04

Peak level 94.6 %
Extraction speed 4.9 X
Track quality 100.0 %
Test CRC EF401378
Copy CRC EF401378
Track not present in AccurateRip database
Copy OK

Track 4

Filename C:EACRips4 – Blue Moon.wav

Peak level 98.8 %
Extraction speed 5.2 X
Track quality 100.0 %
Test CRC 983D0647
Copy CRC 983D0647
Track not present in AccurateRip database
Copy OK

Track 5

Filename C:EACRips5 – They Can’t Take That Away From Me.wav

Pre-gap length 0:00:01.44

Peak level 91.4 %
Extraction speed 5.2 X
Track quality 100.0 %
Test CRC 417F878C
Copy CRC 417F878C
Track not present in AccurateRip database
Copy OK

Track 6

Filename C:EACRips6 – It Don’t Mean A Thing (If It Ain’t Got That Swing).wav

Pre-gap length 0:00:01.24

Peak level 98.8 %
Extraction speed 3.9 X
Track quality 99.9 %
Test CRC 6EA0CF04
Copy CRC 6EA0CF04
Track not present in AccurateRip database
Copy OK

Track 7

Filename C:EACRips7 – Stompin’ At The Savoy.wav

Pre-gap length 0:00:01.04

Peak level 88.7 %
Extraction speed 5.6 X
Track quality 100.0 %
Test CRC 3145D305
Copy CRC 3145D305
Track not present in AccurateRip database
Copy OK

Track 8

Filename C:EACRips8 – Baubles, Bangles And Beads.wav

Pre-gap length 0:00:01.00

Peak level 96.9 %
Extraction speed 5.7 X
Track quality 100.0 %
Test CRC D8CD15B3
Copy CRC D8CD15B3
Track not present in AccurateRip database
Copy OK

Track 9

Filename C:EACRips9 – The More I See You.wav

Pre-gap length 0:00:01.53

Peak level 91.2 %
Extraction speed 6.2 X
Track quality 100.0 %
Test CRC 218F75F2
Copy CRC 218F75F2
Track not present in AccurateRip database
Copy OK

Track 10

Filename C:EACRips10 – I’m Glad There Is You.wav

Peak level 96.6 %
Extraction speed 6.2 X
Track quality 100.0 %
Test CRC 08EFB7D1
Copy CRC 08EFB7D1
Track not present in AccurateRip database
Copy OK

Track 11

Filename C:EACRips11 – Willow Weep For Me.wav

Pre-gap length 0:00:01.73

Peak level 71.1 %
Extraction speed 6.6 X
Track quality 100.0 %
Test CRC 1222854D
Copy CRC 1222854D
Track not present in AccurateRip database
Copy OK

Track 12

Filename C:EACRips12 – Cry Like The Wind.wav

Peak level 87.0 %
Extraction speed 6.6 X
Track quality 100.0 %
Test CRC 2BF8C50F
Copy CRC 2BF8C50F
Track not present in AccurateRip database
Copy OK

Track 13

Filename C:EACRips13 – Bei Mir Bist Du Schon.wav

Pre-gap length 0:00:01.06

Peak level 96.6 %
Extraction speed 6.8 X
Track quality 100.0 %
Test CRC DE95D85F
Copy CRC DE95D85F
Track not present in AccurateRip database
Copy OK

Track 14

Filename C:EACRips14 – Swinging On A Star.wav

Pre-gap length 0:00:01.04

Peak level 96.9 %
Extraction speed 6.8 X
Track quality 100.0 %
Test CRC 54C03F13
Copy CRC 54C03F13
Track not present in AccurateRip database
Copy OK

Track 15

Filename C:EACRips15 – Give A Little Whistle.wav

Pre-gap length 0:00:01.90

Peak level 97.7 %
Extraction speed 6.8 X
Track quality 100.0 %
Test CRC DD7FDB6D
Copy CRC DD7FDB6D
Track not present in AccurateRip database
Copy OK

Track 16

Filename C:EACRips16 – When You Wish Upon A Star.wav

Peak level 97.7 %
Extraction speed 7.0 X
Track quality 100.0 %
Test CRC 06B602A2
Copy CRC 06B602A2
Track not present in AccurateRip database
Copy OK

Track 17

Filename C:EACRips17 – Bewitched, Bothered And Bewildered.wav

Pre-gap length 0:00:01.10

Peak level 88.5 %
Extraction speed 8.0 X
Track quality 100.0 %
Test CRC CBAA1235
Copy CRC CBAA1235
Track not present in AccurateRip database
Copy OK

Track 18

Filename C:EACRips18 – How High The Moon.wav

Peak level 98.8 %
Extraction speed 7.4 X
Track quality 100.0 %
Test CRC 4C65018F
Copy CRC 4C65018F
Track not present in AccurateRip database
Copy OK

Track 19

Filename C:EACRips19 – I Get Along Without You Very Well.wav

Peak level 98.8 %
Extraction speed 7.9 X
Track quality 100.0 %
Test CRC C1124A25
Copy CRC C1124A25
Track not present in AccurateRip database
Copy OK

Track 20

Filename C:EACRips20 – The Song Is You.wav

Peak level 88.3 %
Extraction speed 7.4 X
Track quality 100.0 %
Test CRC E1FBBC18
Copy CRC E1FBBC18
Track not present in AccurateRip database
Copy OK

Track 21

Filename C:EACRips21 – Misty.wav

Peak level 98.8 %
Extraction speed 4.8 X
Track quality 99.9 %
Test CRC 631E9797
Copy CRC 631E9797
Track not present in AccurateRip database
Copy OK

Track 22

Filename C:EACRips22 – The Way You Look Tonight.wav

Copy aborted

21 track(s) not present in the AccurateRip database
1 track(s) canceled

No tracks could be verified as accurate

There were errors

End of status report

==== Log checksum 5C302A6459AC01747BEB55EC8AAD983D2E379CCD7F2300A3B92D07249B5A41CD ====

––––––––––––––––––––––––––––––

Exact Audio Copy V1.1 from 23. June 2015

EAC extraction logfile from 23. October 2016, 20:26

June Christy / Sings The Standards

Used drive : HL-DT-STDVD+-RW GH30N Adapter: 1 ID: 1

Read mode : Secure
Utilize accurate stream : Yes
Defeat audio cache : Yes
Make use of C2 pointers : No

Read offset correction : 102
Overread into Lead-In and Lead-Out : Yes
Fill up missing offset samples with silence : Yes
Delete leading and trailing silent blocks : No
Null samples used in CRC calculations : Yes
Used interface : Native Win32 interface for Win NT & 2000
Gap handling : Appended to previous track

Used output format : User Defined Encoder
Selected bitrate : 768 kBit/s
Quality : High
Add ID3 tag : No
Command line compressor : C:Program Files (x86)Exact Audio CopyFLACFLAC.EXE
Additional command line options : -8 -V -T "ARTIST=%artist%" -T "TITLE=%title%" -T "ALBUM=%albumtitle%" -T "DATE=%year%" -T "TRACKNUMBER=%tracknr%" -T "GENRE=%genre%" -T "PERFORMER=%albuminterpret%" -T "COMPOSER=%composer%" %haslyrics%–tag-from-file=LYRICS="%lyricsfile%"%haslyrics% -T "ALBUMARTIST=%albumartist%" -T "DISCNUMBER=%cdnumber%" -T "TOTALDISCS=%totalcds%" -T "TOTALTRACKS=%numtracks%" -T "COMMENT=%comment%" %source% -o %dest%

TOC of the extracted CD

Track | Start | Length | Start sector | End sector
––––––––––––––––––––––––––––-
1 | 0:00.00 | 2:48.52 | 0 | 12651
2 | 2:48.52 | 4:06.43 | 12652 | 31144
3 | 6:55.20 | 3:15.05 | 31145 | 45774
4 | 10:10.25 | 3:12.00 | 45775 | 60174
5 | 13:22.25 | 2:41.15 | 60175 | 72264
6 | 16:03.40 | 1:53.15 | 72265 | 80754
7 | 17:56.55 | 2:31.17 | 80755 | 92096
8 | 20:27.72 | 2:29.10 | 92097 | 103281
9 | 22:57.07 | 3:04.28 | 103282 | 117109
10 | 26:01.35 | 2:40.57 | 117110 | 129166
11 | 28:42.17 | 3:16.03 | 129167 | 143869
12 | 31:58.20 | 2:38.35 | 143870 | 155754
13 | 34:36.55 | 2:44.70 | 155755 | 168124
14 | 37:21.50 | 2:33.20 | 168125 | 179619
15 | 39:54.70 | 2:27.25 | 179620 | 190669
16 | 42:22.20 | 2:33.60 | 190670 | 202204
17 | 44:56.05 | 4:56.42 | 202205 | 224446
18 | 49:52.47 | 2:34.13 | 224447 | 236009
19 | 52:26.60 | 3:09.47 | 236010 | 250231
20 | 55:36.32 | 4:21.58 | 250232 | 269864
21 | 59:58.15 | 3:06.20 | 269865 | 283834
22 | 63:04.35 | 2:48.60 | 283835 | 296494

Track 1

Filename C:EACRips1 – For All We Know.wav

Pre-gap length 0:00:02.00

Peak level 62.5 %
Extraction speed 1.5 X
Track quality 100.0 %
Test CRC B92E4361
Copy CRC B92E4361
Track not present in AccurateRip database
Copy OK

Track 2

Filename C:EACRips2 – Do Nothin’ Till You Hear From Me.wav

Peak level 75.8 %
Extraction speed 1.8 X
Track quality 100.0 %
Test CRC 970DB914
Copy CRC 970DB914
Track not present in AccurateRip database
Copy OK

Track 3

Filename C:EACRips3 – Fly Me To The Moon (In Other Words).wav

Pre-gap length 0:00:01.04

Peak level 94.6 %
Extraction speed 1.8 X
Track quality 100.0 %
Test CRC EF401378
Copy CRC EF401378
Track not present in AccurateRip database
Copy OK

Track 4

Filename C:EACRips4 – Blue Moon.wav

Peak level 98.8 %
Extraction speed 2.0 X
Track quality 100.0 %
Test CRC 983D0647
Copy CRC 983D0647
Track not present in AccurateRip database
Copy OK

Track 5

Filename C:EACRips5 – They Can’t Take That Away From Me.wav

Pre-gap length 0:00:01.44

Peak level 91.4 %
Extraction speed 2.0 X
Track quality 100.0 %
Test CRC 417F878C
Copy CRC 417F878C
Track not present in AccurateRip database
Copy OK

Track 6

Filename C:EACRips6 – It Don’t Mean A Thing (If It Ain’t Got That Swing).wav

Pre-gap length 0:00:01.24

Peak level 98.8 %
Extraction speed 1.5 X
Track quality 99.9 %
Test CRC 6EA0CF04
Copy CRC 6EA0CF04
Track not present in AccurateRip database
Copy OK

Track 7

Filename C:EACRips7 – Stompin’ At The Savoy.wav

Pre-gap length 0:00:01.04

Peak level 88.7 %
Extraction speed 2.1 X
Track quality 100.0 %
Test CRC 3145D305
Copy CRC 3145D305
Track not present in AccurateRip database
Copy OK

Track 8

Filename C:EACRips8 – Baubles, Bangles And Beads.wav

Pre-gap length 0:00:01.00

Peak level 96.9 %
Extraction speed 2.2 X
Track quality 100.0 %
Test CRC D8CD15B3
Copy CRC D8CD15B3
Track not present in AccurateRip database
Copy OK

Track 9

Filename C:EACRips9 – The More I See You.wav

Pre-gap length 0:00:01.53

Peak level 91.2 %
Extraction speed 2.4 X
Track quality 100.0 %
Test CRC 218F75F2
Copy CRC 218F75F2
Track not present in AccurateRip database
Copy OK

Track 10

Filename C:EACRips10 – I’m Glad There Is You.wav

Peak level 96.6 %
Extraction speed 2.4 X
Track quality 100.0 %
Test CRC 08EFB7D1
Copy CRC 08EFB7D1
Track not present in AccurateRip database
Copy OK

Track 11

Filename C:EACRips11 – Willow Weep For Me.wav

Pre-gap length 0:00:01.73

Peak level 71.1 %
Extraction speed 2.5 X
Track quality 100.0 %
Test CRC 1222854D
Copy CRC 1222854D
Track not present in AccurateRip database
Copy OK

Track 12

Filename C:EACRips12 – Cry Like The Wind.wav

Peak level 87.0 %
Extraction speed 2.5 X
Track quality 100.0 %
Test CRC 2BF8C50F
Copy CRC 2BF8C50F
Track not present in AccurateRip database
Copy OK

Track 13

Filename C:EACRips13 – Bei Mir Bist Du Schon.wav

Pre-gap length 0:00:01.06

Peak level 96.6 %
Extraction speed 2.6 X
Track quality 100.0 %
Test CRC DE95D85F
Copy CRC DE95D85F
Track not present in AccurateRip database
Copy OK

Track 14

Filename C:EACRips14 – Swinging On A Star.wav

Pre-gap length 0:00:01.04

Peak level 96.9 %
Extraction speed 2.5 X
Track quality 100.0 %
Test CRC 54C03F13
Copy CRC 54C03F13
Track not present in AccurateRip database
Copy OK

Track 15

Filename C:EACRips15 – Give A Little Whistle.wav

Pre-gap length 0:00:01.90

Peak level 97.7 %
Extraction speed 2.6 X
Track quality 100.0 %
Test CRC DD7FDB6D
Copy CRC DD7FDB6D
Track not present in AccurateRip database
Copy OK

Track 16

Filename C:EACRips16 – When You Wish Upon A Star.wav

Peak level 97.7 %
Extraction speed 2.7 X
Track quality 100.0 %
Test CRC 06B602A2
Copy CRC 06B602A2
Track not present in AccurateRip database
Copy OK

Track 17

Filename C:EACRips17 – Bewitched, Bothered And Bewildered.wav

Pre-gap length 0:00:01.10

Peak level 88.5 %
Extraction speed 3.1 X
Track quality 100.0 %
Test CRC CBAA1235
Copy CRC CBAA1235
Track not present in AccurateRip database
Copy OK

Track 18

Filename C:EACRips18 – How High The Moon.wav

Peak level 98.8 %
Extraction speed 2.9 X
Track quality 100.0 %
Test CRC 4C65018F
Copy CRC 4C65018F
Track not present in AccurateRip database
Copy OK

Track 19

Filename C:EACRips19 – I Get Along Without You Very Well.wav

Peak level 98.8 %
Extraction speed 3.0 X
Track quality 100.0 %
Test CRC C1124A25
Copy CRC C1124A25
Track not present in AccurateRip database
Copy OK

Track 20

Filename C:EACRips20 – The Song Is You.wav

Peak level 88.3 %
Extraction speed 3.3 X
Track quality 100.0 %
Test CRC E1FBBC18
Copy CRC E1FBBC18
Track not present in AccurateRip database
Copy OK

Track 21

Filename C:EACRips21 – Misty.wav

Peak level 98.8 %
Extraction speed 2.7 X
Track quality 99.9 %
Test CRC 631E9797
Copy CRC 631E9797
Track not present in AccurateRip database
Copy OK

Track 22

Filename C:EACRips22 – The Way You Look Tonight.wav

Peak level 98.8 %
Extraction speed 3.7 X
Track quality 100.0 %
Test CRC ED6D25B9
Copy CRC ED6D25B9
Track not present in AccurateRip database
Copy OK

None of the tracks are present in the AccurateRip database

No errors occurred

End of status report

–– CUETools DB Plugin V2.1.6

[CTDB TOCID: U_bezezKd9JEbA29kvC.FjX5d6o-] found
Submit result: U_bezezKd9JEbA29kvC.FjX5d6o- has been confirmed
Track | CTDB Status
1 | (1/1) Accurately ripped
2 | (1/1) Accurately ripped
3 | (1/1) Accurately ripped
4 | (1/1) Accurately ripped
5 | (1/1) Accurately ripped
6 | (1/1) Accurately ripped
7 | (1/1) Accurately ripped
8 | (1/1) Accurately ripped
9 | (1/1) Accurately ripped
10 | (1/1) Accurately ripped
11 | (1/1) Accurately ripped
12 | (1/1) Accurately ripped
13 | (1/1) Accurately ripped
14 | (1/1) Accurately ripped
15 | (1/1) Accurately ripped
16 | (1/1) Accurately ripped
17 | (1/1) Accurately ripped
18 | (1/1) Accurately ripped
19 | (1/1) Accurately ripped
20 | (1/1) Accurately ripped
21 | (1/1) Accurately ripped
22 | (1/1) Accurately ripped

==== Log checksum 090EF779CCF5BF596EEE015142F5D381620FF5CB1CC34B8EDD56627184420A45 ====

DR log
foobar2000 1.2 / Dynamic Range Meter 1.1.1
log date: 2017-07-13 18:35:24

––––––––––––––––––––––––––––––––––––––––
Analyzed: June Christy / Sings The Standards
––––––––––––––––––––––––––––––––––––––––

DR Peak RMS Duration Track
––––––––––––––––––––––––––––––––––––––––
DR8 -4.07 dB -15.25 dB 2:49 01-For All We Know
DR12 -2.40 dB -17.51 dB 4:07 02-Do Nothin’ Till You Hear From Me
DR14 -0.48 dB -19.27 dB 3:15 03-Fly Me To The Moon (In Other Words)
DR13 -0.10 dB -16.24 dB 3:12 04-Blue Moon
DR12 -0.78 dB -16.08 dB 2:41 05-They Can’t Take That Away From Me
DR14 -0.10 dB -17.37 dB 1:53 06-It Don’t Mean A Thing (If It Ain’t Got That Swing)
DR10 -1.04 dB -13.73 dB 2:31 07-Stompin’ At The Savoy
DR13 -0.27 dB -14.91 dB 2:29 08-Baubles, Bangles And Beads
DR13 -0.80 dB -18.52 dB 3:04 09-The More I See You
DR13 -0.30 dB -19.33 dB 2:41 10-I’m Glad There Is You
DR9 -2.95 dB -14.52 dB 3:16 11-Willow Weep For Me
DR11 -1.21 dB -16.27 dB 2:38 12-Cry Like The Wind
DR10 -0.30 dB -12.60 dB 2:45 13-Bei Mir Bist Du Schon
DR12 -0.27 dB -14.47 dB 2:33 14-Swinging On A Star
DR13 -0.20 dB -17.34 dB 2:27 15-Give A Little Whistle
DR15 -0.20 dB -18.42 dB 2:34 16-When You Wish Upon A Star
DR13 -1.06 dB -17.45 dB 4:57 17-Bewitched, Bothered And Bewildered
DR12 -0.10 dB -16.78 dB 2:34 18-How High The Moon
DR13 -0.10 dB -17.39 dB 3:10 19-I Get Along Without You Very Well
DR12 -1.08 dB -17.05 dB 4:22 20-The Song Is You
DR13 -0.10 dB -18.77 dB 3:06 21-Misty
DR12 -0.10 dB -14.57 dB 2:49 22-The Way You Look Tonight
––––––––––––––––––––––––––––––––––––––––

Number of tracks: 22
Official DR value: DR12

Samplerate: 44100 Hz
Channels: 2
Bits per sample: 16
Bitrate: 609 kbps
Codec: FLAC
================================================================================

June Christy - June Christy Sings The Standards (2002)

All thanks to original releaser – robman62

More interesting music in My Blog

June Christy – Gone For The Day (1957) + Fair And Warmer! (1957) 2 LP in 1 CD, 1998

June Christy – June Christy Sings The Standards (2002) Download, Warez, DDL, Free, Full Album, Torrent, Legal.

Download