Julio Iglesias – El Amor (1975)

Download
Julio Iglesias - El Amor (1975)

Julio Iglesias – El Amor (1975)
EAC | Flac(Image) + Cue + Log & MP3 CBR 320Kbps
1989 | CBS Grammofoonplaten, CD 82868 | ~ 196 or 85 Mb | Scans Included
Pop, Latin Pop, Vocal

This album is Julio Iglesias at his best. After the good effort put forth on his previous album, A Flor de Piel, he created this romantic masterpiece. Iglesias was trying to conquer the world, and he put his body and soul into it. It contains some hits, like "A Veces Tú, a Veces Yo," "Abrazame," and his version of the traditional "Jeuxs Interdit," renamed "Quiero." Iglesias included two covers – George Harrison’s "My Sweet Lord" and Barry White’s "Love Theme" – both sung in English. The album was produced by his longtime collaborator, Rafael Ferro, and is a must-have for any Latin pop lover.

by Iván Adaime, allmusic

Julio Iglesias – El Amor (1975):

Julio Iglesias - El Amor (1975)

Tracklist:

01. Abrazame [03:36]
02. A veces tu, a veces yo [02:55]
03. Tema de amor (Love’s Theme) [03:11]
04. Quien [03:42]
05. Cuidado Amor [04:04]
06. Quiero [02:52]
07. El Amor (La tenderesse) [02:52]
08. Mi dulce senor (My Sweet Lord) [03:39]
09. Dejala [02:50]
10. Candilejas [04:13]

EAC Log
Exact Audio Copy V0.99 prebeta 5 from 4. May 2009

EAC extraction logfile from 4. July 2014, 13:07

JULIO IGLESIAS / El Amor ( CD 82868 )

Used drive : ASUS DRW-24B3ST Adapter: 1 ID: 0

Read mode : Secure
Utilize accurate stream : Yes
Defeat audio cache : Yes
Make use of C2 pointers : No

Read offset correction : 6
Overread into Lead-In and Lead-Out : No
Fill up missing offset samples with silence : Yes
Delete leading and trailing silent blocks : No
Null samples used in CRC calculations : Yes
Used interface : Native Win32 interface for Win NT & 2000

Used output format : User Defined Encoder
Selected bitrate : 1024 kBit/s
Quality : High
Add ID3 tag : No
Command line compressor : C:Program Files (x86)EACWVwavpack.exe
Additional command line options : -h -hh -m %s %d

TOC of the extracted CD

Track | Start | Length | Start sector | End sector
––––––––––––––––––––––––––––-
1 | 0:00.00 | 3:36.53 | 0 | 16252
2 | 3:36.53 | 2:55.27 | 16253 | 29404
3 | 6:32.05 | 3:11.18 | 29405 | 43747
4 | 9:43.23 | 3:42.67 | 43748 | 60464
5 | 13:26.15 | 4:04.18 | 60465 | 78782
6 | 17:30.33 | 2:52.42 | 78783 | 91724
7 | 20:23.00 | 2:52.33 | 91725 | 104657
8 | 23:15.33 | 3:39.35 | 104658 | 121117
9 | 26:54.68 | 2:50.55 | 121118 | 133922
10 | 29:45.48 | 4:13.02 | 133923 | 152899

Range status and errors

Selected range

Filename G:JULIO IGLESIAS1975- El Amor (US 1989 CBS Grammofoonplaten B.V. • CD 82868)JULIO IGLESIAS – El Amor ( CD 82868 ).wav

Peak level 73.3 %
Range quality 100.0 %
Test CRC 2CE5D095
Copy CRC 2CE5D095
Copy OK

No errors occurred

AccurateRip summary

Track 1 cannot be verified as accurate (confidence 1) [C33AB76A], AccurateRip returned [ED4A7E46]
Track 2 cannot be verified as accurate (confidence 1) [0E653E96], AccurateRip returned [BE2DEC3B]
Track 3 cannot be verified as accurate (confidence 1) [1AE23A43], AccurateRip returned [5AB9D1DE]
Track 4 cannot be verified as accurate (confidence 1) [F0636023], AccurateRip returned [0FD818A4]
Track 5 cannot be verified as accurate (confidence 1) [B35FDFEE], AccurateRip returned [3BE5D98B]
Track 6 cannot be verified as accurate (confidence 1) [6EDF8479], AccurateRip returned [4D68A7E2]
Track 7 cannot be verified as accurate (confidence 1) [255CCE45], AccurateRip returned [57B948AD]
Track 8 cannot be verified as accurate (confidence 1) [42969897], AccurateRip returned [D85F4CAD]
Track 9 cannot be verified as accurate (confidence 1) [BB79AA40], AccurateRip returned [4EA67B23]
Track 10 cannot be verified as accurate (confidence 1) [25C6B202], AccurateRip returned [696C9097]

No tracks could be verified as accurate
You may have a different pressing from the one(s) in the database

End of status report

DR Log
foobar2000 1.2.9 / Dynamic Range Meter 1.1.1
log date: 2017-02-05 21:55:43

––––––––––––––––––––––––––––––––––––––––
Analyzed: JULIO IGLESIAS / El Amor ( CD 82868 )
––––––––––––––––––––––––––––––––––––––––

DR Peak RMS Duration Track
––––––––––––––––––––––––––––––––––––––––
DR12 -3.18 dB -21.41 dB 3:37 01-Abrazame
DR13 -3.18 dB -19.55 dB 2:55 02-A veces tu, a veces yo
DR13 -3.98 dB -19.70 dB 3:11 03-Tema de amor (Love’s Theme)
DR13 -4.25 dB -21.69 dB 3:43 04-Quien
DR13 -4.88 dB -20.98 dB 4:04 05-Cuidado Amor
DR13 -4.61 dB -20.61 dB 2:53 06-Quiero
DR12 -6.99 dB -23.47 dB 2:52 07-El Amor (La tenderesse)
DR12 -5.08 dB -21.28 dB 3:39 08-Mi dulce senor (My Sweet Lord)
DR12 -5.02 dB -21.04 dB 2:51 09-Dejala
DR13 -2.69 dB -23.08 dB 4:13 10-Candilejas
––––––––––––––––––––––––––––––––––––––––

Number of tracks: 10
Official DR value: DR13

Samplerate: 44100 Hz
Channels: 2
Bits per sample: 16
Bitrate: 764 kbps
Codec: FLAC

CUETools Log
[CUETools log; Date: 05.02.2017 21:55:34; Version: 2.1.4]
[CTDB TOCID: brFYPzlgLWoO8IgwQpVT8bgQvOo-] found.
Track | CTDB Status
1 | (7/7) Accurately ripped
2 | (7/7) Accurately ripped
3 | (7/7) Accurately ripped
4 | (7/7) Accurately ripped
5 | (7/7) Accurately ripped
6 | (7/7) Accurately ripped
7 | (7/7) Accurately ripped
8 | (7/7) Accurately ripped
9 | (7/7) Accurately ripped
10 | (7/7) Accurately ripped
[AccurateRip ID: 000cb5d2-0065a494-8a07f60a] found.
Track [ CRC | V2 ] Status
01 [c33ab76a|ed4a7e46] (0+2/2) Accurately ripped
02 [0e653e96|be2dec3b] (0+2/2) Accurately ripped
03 [1ae23a43|5ab9d1de] (0+2/2) Accurately ripped
04 [f0636023|0fd818a4] (0+2/2) Accurately ripped
05 [b35fdfee|3be5d98b] (0+2/2) Accurately ripped
06 [6edf8479|4d68a7e2] (0+2/2) Accurately ripped
07 [255cce45|57b948ad] (0+2/2) Accurately ripped
08 [42969897|d85f4cad] (0+2/2) Accurately ripped
09 [bb79aa40|4ea67b23] (0+2/2) Accurately ripped
10 [25c6b202|696c9097] (0+2/2) Accurately ripped

Track Peak [ CRC32 ] [W/O NULL] [ LOG ]
– 73,3 [2CE5D095] [10FA92F8] CRC32
01 69,3 [BBE3CDCD] [045E4BE2]
02 69,3 [4FBE1362] [813D7B02]
03 63,2 [D72115C1] [B2AEC95D]
04 61,3 [F9C4BAB5] [06E57887]
05 57,0 [82864282] [6C6C9764]
06 58,7 [7C030111] [DC9B2F18]
07 44,7 [F5B382D1] [DBE0CC66]
08 55,7 [5BA06631] [CCFD6FB7]
09 56,1 [57A97C5C] [19764337]
10 73,3 [2B4A801A] [CD795346]

Julio Iglesias - El Amor (1975)

All thanks go to the original releaser

Julio Iglesias in my Blog

Download Julio Iglesias – El Amor (1975):

Julio Iglesias – El Amor (1975) Download, Warez, DDL, Free, Full Album, Torrent, Legal.

Download