Julie London – The Essential Recordings [2CD] (2016)

Download
Julie London - The Essential Recordings [2CD] (2016)

Julie London – The Essential Recordings [2CD] (2016)
Vocal Jazz, Standarts, Vocal Pop | EAC Rip | FLAC, Img+CUE+LOG+Scans (JPEG) | 01:46:21 h. | 597,70 Mb
Label: The Primo Collection (EU) | Cat.# PRMCD6198 | Released: 2016-07-29
Julie London - The Essential Recordings [2CD] (2016)

This collection celebrates the early recordings of Julie London, a much underrated singer, but one who will always be remembered for the wonderful ‘Cry Me A River’. These 40 tracks highlight her unique smoky, subtle, sultry vocal style.

~Amazon UK
Julie London - The Essential Recordings [2CD] (2016)

Julie London - The Essential Recordings [2CD] (2016)

Julie London - The Essential Recordings [2CD] (2016)
Julie London - The Essential Recordings [2CD] (2016)

Release of this 2CD Set: 2016, July, 29 [CD The Primo Collection (EU), Cat.# PRMCD6198 / UPC: 805520091985]
This digitally remastered compilation ℗© 2016 The Primo Collection.
Made in the EU

Julie London - The Essential Recordings [2CD] (2016)

Tracklist:

Disc One

01. Cry Me A River (Hamilton) 1955 (02:48)
02. I’m In The Mood For Love (McHugh, Fields) 1955 (02:29)
03. Can’t Help Lovin’ (Dat Man Kern, Hammerstein) 1955 (03:11)
04. Lonely Girl (Troup) 1956 (02:31)
05. June In January (Robin, Rainger) 1956 (02:06)
06. September In The Rain (Warren, Dubin) 1956 (01:38)
07. Basin Street Blues (Williams) 1957 (03:02)
08. Invitation To The Blues (Fisher, Roberts, Gershwin) 1961 (02:46)
09. Meaning Of The Blues (Troup, Worth) 1957 (02:54)
10. Blues In the Night (Arlen, Mercer) 1959 (03:37)
11. The Nearness Of You (Carmichael, Washington) 1957 (02:16)
12. Daddy (Troup, Worth) 1957 (02:15)
13. Blue Moon (Rodgers, Hart) 1958 (02:30)
14. Goody Goody (Malneck, Mercer) 1958 (01:55)
15. Hot Toddy (Flanagan, Hendler) 1958 (01:45)
16. Mad About The Boy (Coward) 1958 (02:10)
17. My Man’s Gone Now (Gershwin, Gershwin, Heyward) 1958 (03:44)
18. Maltin’ Whoopee (Donaldson, Kahn) 1959 (02:40)
19. When I Fall In Love (Young, Heyman) 1959 (03:19)
20. They Can’t Take That Away From Me (Gershwin, Gershwin) 1959 (03:06)

Disc Two

01. Slightly Out Of Tune (Mendonca, Jobim) 1962 (02:02)
02. Love Letters (Young, Heyman) 1962 (02:51)
03. One For My Baby (And One More For The Road) (Arlen, Mercer) 1959 (04:06)
04. The More I See You (Gordon, Warren) 1959 (02:57)
05. Two Sleepy People (Carmichael, Loesser) 1959 (03:13)
06. You’d Be So Nice To Come Home To (Porter) 1960 (02:11)
07. Sentimental Journey (Brown, Green, Homer) 1959 (02:23)
08. Let There Be Love (Grant, Rand) 1959 (02:00)
09. Misty (Garner, Burke) 1960 (03:07)
10. Black Coffee (Burke, Webster) 1960 (02:48)
11. In The Wee Small Hours Of Morning (Hilliard, Mann) 1960 (02:45)
12. You And The Night And The Music (Schwartz, Dietz) 1960 (02:37)
13. Gee, Baby, Ain’t I Good To You (Redman, Razaf) 1957 (01:55)
14. My Heart Belongs To Daddy (Porter) 1961 (02:38)
15. Hard-Hearted Hannah (Ager, Bates, Bigelow, Yellen) 1961 (01:54)
16. Do It Again (Gershwin, DeSylva) 1961 (02:17)
17. Diamonds Are a Girl’s Best Friend (Styne, Robin) 1961 (01:57)
18. Sophisticated Lady (Ellington, Mills, Parish) 1962 (02:33)
19. Bewitched, Bothered, And Bewildered (Rodgers, Hart) 1962 (02:52)
20. Never On Sunday (Hadjidakis, Towne) 1962 (02:20)

EAC log CD1
Exact Audio Copy V1.3 from 2. September 2016

EAC extraction logfile from 9. July 2017, 19:08

Julie London / The Essential Recordings (CD One)

Used drive : ATAPI iHAS122 C Adapter: 1 ID: 0

Read mode : Secure
Utilize accurate stream : Yes
Defeat audio cache : Yes
Make use of C2 pointers : No

Read offset correction : 6
Overread into Lead-In and Lead-Out : No
Fill up missing offset samples with silence : Yes
Delete leading and trailing silent blocks : No
Null samples used in CRC calculations : Yes
Used interface : Native Win32 interface for Win NT & 2000

Used output format : Internal WAV Routines
Sample format : 44.100 Hz; 16 Bit; Stereo

TOC of the extracted CD

Track | Start | Length | Start sector | End sector
––––––––––––––––––––––––––––-
1 | 0:00.00 | 2:53.65 | 0 | 13039
2 | 2:53.65 | 2:32.23 | 13040 | 24462
3 | 5:26.13 | 3:14.01 | 24463 | 39013
4 | 8:40.14 | 2:34.34 | 39014 | 50597
5 | 11:14.48 | 2:09.24 | 50598 | 60296
6 | 13:23.72 | 1:40.74 | 60297 | 67870
7 | 15:04.71 | 3:05.04 | 67871 | 81749
8 | 18:10.00 | 2:50.08 | 81750 | 94507
9 | 21:00.08 | 2:56.74 | 94508 | 107781
10 | 23:57.07 | 3:39.74 | 107782 | 124280
11 | 27:37.06 | 2:19.41 | 124281 | 134746
12 | 29:56.47 | 2:19.47 | 134747 | 145218
13 | 32:16.19 | 2:32.15 | 145219 | 156633
14 | 34:48.34 | 1:57.19 | 156634 | 165427
15 | 36:45.53 | 1:49.17 | 165428 | 173619
16 | 38:34.70 | 2:13.26 | 173620 | 183620
17 | 40:48.21 | 3:47.47 | 183621 | 200692
18 | 44:35.68 | 2:43.25 | 200693 | 212942
19 | 47:19.18 | 3:22.31 | 212943 | 228123
20 | 50:41.49 | 3:06.22 | 228124 | 242095

Range status and errors

Selected range

Filename C:UsersLondonDesktopJulie London – The Essential Recordings (CD One).wav

Peak level 100.0 %
Extraction speed 8.3 X
Range quality 100.0 %
Test CRC 331FB90B
Copy CRC 331FB90B
Copy OK

No errors occurred

AccurateRip summary

Track 1 accurately ripped (confidence 1) [FA5A32DF] (AR v2)
Track 2 accurately ripped (confidence 1) [6D25E625] (AR v2)
Track 3 accurately ripped (confidence 1) [494DB4FD] (AR v2)
Track 4 accurately ripped (confidence 1) [74816E5C] (AR v2)
Track 5 accurately ripped (confidence 1) [4DBDFBC9] (AR v2)
Track 6 accurately ripped (confidence 1) [238F3544] (AR v2)
Track 7 accurately ripped (confidence 1) [F647A6EE] (AR v2)
Track 8 accurately ripped (confidence 1) [2AFE40A8] (AR v2)
Track 9 accurately ripped (confidence 1) [91533545] (AR v2)
Track 10 accurately ripped (confidence 1) [006B31BA] (AR v2)
Track 11 accurately ripped (confidence 1) [EB51B3F2] (AR v2)
Track 12 accurately ripped (confidence 1) [BED5E6FD] (AR v2)
Track 13 accurately ripped (confidence 1) [F37E6DB9] (AR v2)
Track 14 accurately ripped (confidence 1) [FF131241] (AR v2)
Track 15 accurately ripped (confidence 1) [47933D45] (AR v2)
Track 16 accurately ripped (confidence 1) [EC089523] (AR v2)
Track 17 accurately ripped (confidence 1) [E1E3C006] (AR v2)
Track 18 accurately ripped (confidence 1) [181B09B4] (AR v2)
Track 19 accurately ripped (confidence 1) [E338320A] (AR v2)
Track 20 accurately ripped (confidence 1) [E26169AB] (AR v2)

All tracks accurately ripped

End of status report

–– CUETools DB Plugin V2.1.6

[CTDB TOCID: yZ52fkvTvc00NUltbm0G8DVPNx4-] found
Submit result: yZ52fkvTvc00NUltbm0G8DVPNx4- has been confirmed
Track | CTDB Status
1 | (2/2) Accurately ripped
2 | (2/2) Accurately ripped
3 | (2/2) Accurately ripped
4 | (2/2) Accurately ripped
5 | (2/2) Accurately ripped
6 | (2/2) Accurately ripped
7 | (2/2) Accurately ripped
8 | (2/2) Accurately ripped
9 | (2/2) Accurately ripped
10 | (2/2) Accurately ripped
11 | (2/2) Accurately ripped
12 | (2/2) Accurately ripped
13 | (2/2) Accurately ripped
14 | (2/2) Accurately ripped
15 | (2/2) Accurately ripped
16 | (2/2) Accurately ripped
17 | (2/2) Accurately ripped
18 | (2/2) Accurately ripped
19 | (2/2) Accurately ripped
20 | (2/2) Accurately ripped

==== Log checksum AA166E9C26B55ECCBBDD0F74D110076BE9F866D49B304BE73C935B1BC1A69ED2 ====

Dynamic Range Meter log CD1
––––––––––––––––––––––––––––––––––––––––
Analyzed: Julie London / The Essential Recordings (CD One)
––––––––––––––––––––––––––––––––––––––––

DR Peak RMS Duration Track
––––––––––––––––––––––––––––––––––––––––
DR9 0.00 dB -11.11 dB 2:54 01-Cry Me A River
DR9 0.00 dB -10.86 dB 2:32 02-I’m In The Mood For Love
DR8 0.00 dB -10.21 dB 3:14 03-Can’t Help Lovin’ Dat Man
DR12 0.00 dB -16.59 dB 2:34 04-Lonely Girl
DR9 0.00 dB -11.42 dB 2:09 05-June In January
DR10 0.00 dB -11.83 dB 1:41 06-September In The Rain
DR8 0.00 dB -11.85 dB 3:05 07-Basin Street Blues
DR9 0.00 dB -11.45 dB 2:50 08-Invitation To The Blues
DR8 0.00 dB -9.98 dB 2:57 09-Meaning Of The Blues
DR8 0.00 dB -11.36 dB 3:40 10-Blues In the Night
DR6 0.00 dB -10.29 dB 2:20 11-The Nearness Of You
DR10 0.00 dB -12.81 dB 2:20 12-Daddy
DR10 0.00 dB -12.23 dB 2:32 13-Blue Moon
DR9 0.00 dB -10.48 dB 1:57 14-Goody Goody
DR7 0.00 dB -10.24 dB 1:49 15-Hot Toddy
DR7 0.00 dB -8.80 dB 2:13 16-Mad About The Boy
DR8 0.00 dB -11.03 dB 3:48 17-My Man’s Gone Now
DR10 0.00 dB -12.77 dB 2:43 18-Makin’ Whoopee
DR9 0.00 dB -11.21 dB 3:22 19-When I Fall In Love
DR8 0.00 dB -10.55 dB 3:06 20-They Can’t Take That Away From Me
––––––––––––––––––––––––––––––––––––––––

Number of tracks: 20
Official DR value: DR9

Samplerate: 44100 Hz
Channels: 2
Bits per sample: 16
Bitrate: 664 kbps
Codec: FLAC
================================================================================

EAC log CD2
Exact Audio Copy V1.3 from 2. September 2016

EAC extraction logfile from 9. July 2017, 19:26

Julie London / The Essential Recordings (CD Two)

Used drive : ATAPI iHAS122 C Adapter: 1 ID: 0

Read mode : Secure
Utilize accurate stream : Yes
Defeat audio cache : Yes
Make use of C2 pointers : No

Read offset correction : 6
Overread into Lead-In and Lead-Out : No
Fill up missing offset samples with silence : Yes
Delete leading and trailing silent blocks : No
Null samples used in CRC calculations : Yes
Used interface : Native Win32 interface for Win NT & 2000

Used output format : Internal WAV Routines
Sample format : 44.100 Hz; 16 Bit; Stereo

TOC of the extracted CD

Track | Start | Length | Start sector | End sector
––––––––––––––––––––––––––––-
1 | 0:00.00 | 2:06.52 | 0 | 9501
2 | 2:06.52 | 2:54.34 | 9502 | 22585
3 | 5:01.11 | 4:09.29 | 22586 | 41289
4 | 9:10.40 | 3:00.32 | 41290 | 54821
5 | 12:10.72 | 3:16.05 | 54822 | 69526
6 | 15:27.02 | 2:14.30 | 69527 | 79606
7 | 17:41.32 | 2:26.56 | 79607 | 90612
8 | 20:08.13 | 2:02.12 | 90613 | 99774
9 | 22:10.25 | 3:10.45 | 99775 | 114069
10 | 25:20.70 | 2:51.30 | 114070 | 126924
11 | 28:12.25 | 2:48.27 | 126925 | 139551
12 | 31:00.52 | 2:40.21 | 139552 | 151572
13 | 33:40.73 | 1:58.24 | 151573 | 160446
14 | 35:39.22 | 2:41.34 | 160447 | 172555
15 | 38:20.56 | 1:57.69 | 172556 | 181399
16 | 40:18.50 | 2:20.26 | 181400 | 191925
17 | 42:39.01 | 2:01.15 | 191926 | 201015
18 | 44:40.16 | 2:36.21 | 201016 | 212736
19 | 47:16.37 | 2:55.11 | 212737 | 225872
20 | 50:11.48 | 2:21.08 | 225873 | 236455

Range status and errors

Selected range

Filename C:UsersLondonDesktopJulie London – The Essential Recordings (CD Two).wav

Peak level 100.0 %
Extraction speed 8.3 X
Range quality 100.0 %
Test CRC 1E82A45A
Copy CRC 1E82A45A
Copy OK

No errors occurred

AccurateRip summary

Track 1 accurately ripped (confidence 1) [B24FA2AE] (AR v2)
Track 2 accurately ripped (confidence 1) [97F84D82] (AR v2)
Track 3 accurately ripped (confidence 1) [B4B1AFC3] (AR v2)
Track 4 accurately ripped (confidence 1) [045231CD] (AR v2)
Track 5 accurately ripped (confidence 1) [896E56BD] (AR v2)
Track 6 accurately ripped (confidence 1) [0453A762] (AR v2)
Track 7 accurately ripped (confidence 1) [43C81102] (AR v2)
Track 8 accurately ripped (confidence 1) [4D96ABE6] (AR v2)
Track 9 accurately ripped (confidence 1) [0897E561] (AR v2)
Track 10 accurately ripped (confidence 1) [B28D76EC] (AR v2)
Track 11 accurately ripped (confidence 1) [2EA349CF] (AR v2)
Track 12 accurately ripped (confidence 1) [CCD9B133] (AR v2)
Track 13 accurately ripped (confidence 1) [9BB4D6D3] (AR v2)
Track 14 accurately ripped (confidence 1) [94B1206D] (AR v2)
Track 15 accurately ripped (confidence 1) [CDD28FFE] (AR v2)
Track 16 accurately ripped (confidence 1) [57816C0F] (AR v2)
Track 17 accurately ripped (confidence 1) [5DD83AE5] (AR v2)
Track 18 accurately ripped (confidence 1) [CB651722] (AR v2)
Track 19 accurately ripped (confidence 1) [E414D045] (AR v2)
Track 20 accurately ripped (confidence 1) [F35ACA38] (AR v2)

All tracks accurately ripped

End of status report

–– CUETools DB Plugin V2.1.6

[CTDB TOCID: BJcutzuCrwMiywDFMFe7HkO6KE8-] found
Submit result: BJcutzuCrwMiywDFMFe7HkO6KE8- has been confirmed
Track | CTDB Status
1 | (2/2) Accurately ripped
2 | (2/2) Accurately ripped
3 | (2/2) Accurately ripped
4 | (2/2) Accurately ripped
5 | (2/2) Accurately ripped
6 | (2/2) Accurately ripped
7 | (2/2) Accurately ripped
8 | (2/2) Accurately ripped
9 | (2/2) Accurately ripped
10 | (2/2) Accurately ripped
11 | (2/2) Accurately ripped
12 | (2/2) Accurately ripped
13 | (2/2) Accurately ripped
14 | (2/2) Accurately ripped
15 | (2/2) Accurately ripped
16 | (2/2) Accurately ripped
17 | (2/2) Accurately ripped
18 | (2/2) Accurately ripped
19 | (2/2) Accurately ripped
20 | (2/2) Accurately ripped

==== Log checksum 21C345FD676C7511DB77CE8C0CFCC1C6EDC6C861CEF0B1B83736387BE55A8C3B ====

Dynamic Range Meter log CD2
––––––––––––––––––––––––––––––––––––––––
Analyzed: Julie London / The Essential Recordings (CD Two)
––––––––––––––––––––––––––––––––––––––––

DR Peak RMS Duration Track
––––––––––––––––––––––––––––––––––––––––
DR10 0.00 dB -11.81 dB 2:07 01-Slightly Out Of Tune
DR10 0.00 dB -12.49 dB 2:54 02-Love Letters
DR9 0.00 dB -11.43 dB 4:09 03-One For My Baby (And One More For The Road)
DR8 0.00 dB -10.28 dB 3:00 04-The More I See You
DR9 0.00 dB -11.70 dB 3:16 05-Two Sleepy People
DR9 0.00 dB -11.09 dB 2:14 06-You’d Be So Nice To Come Home To
DR9 0.00 dB -10.76 dB 2:27 07-Sentimental Journey
DR10 0.00 dB -12.43 dB 2:02 08-Let There Be Love
DR10 0.00 dB -11.96 dB 3:11 09-Misty
DR9 0.00 dB -11.39 dB 2:51 10-Black Coffee
DR8 0.00 dB -10.93 dB 2:48 11-In The Wee Small Hours Of Morning
DR9 0.00 dB -10.74 dB 2:40 12-You And The Night And The Music
DR8 0.00 dB -10.17 dB 1:58 13-Gee, Baby, Ain’t I Good To You
DR8 0.00 dB -10.75 dB 2:41 14-My Heart Belongs To Daddy
DR8 0.00 dB -10.43 dB 1:58 15-Hard-Hearted Hannah
DR7 0.00 dB -9.94 dB 2:20 16-Do It Again
DR8 0.00 dB -11.18 dB 2:01 17-Diamonds Are a Girl’s Best Friend
DR9 0.00 dB -12.18 dB 2:36 18-Sophisticated Lady
DR8 0.00 dB -11.10 dB 2:55 19-Bewitched, Bothered, And Bewildered
DR9 0.00 dB -10.84 dB 2:21 20-Never On Sunday
––––––––––––––––––––––––––––––––––––––––

Number of tracks: 20
Official DR value: DR9

Samplerate: 44100 Hz
Channels: 2
Bits per sample: 16
Bitrate: 811 kbps
Codec: FLAC
================================================================================

All thanks to London

password: BlondStyle

Julie London – The Essential Recordings [2CD] (2016) Download, Warez, DDL, Free, Full Album, Torrent, Legal.

Download