Judee Sill – Heart Food (1973) (Limited Edition)

Download
Judee Sill - Heart Food (1973) (Limited Edition)

Judee Sill – Heart Food (1973) (Limited Edition)
Folk Rock | 1cd | EAC Rip | Flac + Cue + Log | covers
Rhino, RHM2 7802 | rem: 2003 | 390Mb

The second album Judee Sill made proved to be her last. A notoriously slow songwriter, this brief though enjoyable outing took its toll on Sill during its making, turning her back to her recently kicked heroin addiction and away from the desire to create more music. Instead of using an outside arranger for the strings (as she did on her previous album), Sill did all of the work herself. Her lack of formal training and the immense amount of orchestral overdubs certainly would have made such an outing a hardship for anyone. The album doesn’t suffer much from its sometimes syrupy exterior, though – the songs are almost as strong as any of those from her debut. To wit, Heart Food suffers only in comparison to its predecessor; otherwise, it’s a stellar example of the kind of singer/songwriter fare the music industry was mining in the early ’70s. The supporting cast of top L.A. studio musicians solidifies Sill’s unique brand country-flavored pop, which moves from introspective meanderings to loping rock, often within a single song. ~Allmusic

Track listing
01. There’s a Rugged Road (3:43)
02. The Kiss (4:34)
03. The Pearl (1:54)
04. Down Where the Valleys are Low (3:49)
05. The Vigilante (3:49)
06. Soldier of the Heart (3:32)
07. The Phoenix (2:35)
08. When the Bridegroom Comes (4:14)
09. The Donor (7:49)
10. Jig (1:02)
11. The Desperado (outtake) (3:55)
12. The Kiss (Demo) (4:13)
13. Down Where the Valleys are Low (Demo) (4:47)
14. The Donor (Demo) (4:43)
15. Soldier of the Heart (Demo) (3:03)
16. The Phoenix (Demo) (2:27)
17. The Vigilante (Demo) (3:43)
18. The Pearl (Demo) (1:57)
19. There’s a Rugged Road (Demo) (3:34)

eac log:
Exact Audio Copy V0.99 prebeta 5 from 4. May 2009

EAC extraction logfile from 4. August 2010, 11:36

Judee Sill / Heart Food

Used drive : HL-DT-STDVDRAM GMA-4082N Adapter: 0 ID: 0

Read mode : Secure
Utilize accurate stream : Yes
Defeat audio cache : Yes
Make use of C2 pointers : No

Read offset correction : 667
Overread into Lead-In and Lead-Out : No
Fill up missing offset samples with silence : Yes
Delete leading and trailing silent blocks : No
Null samples used in CRC calculations : Yes
Used interface : Installed external ASPI interface
Gap handling : Appended to previous track

Used output format : User Defined Encoder
Selected bitrate : 192 kBit/s
Quality : High
Add ID3 tag : No
Command line compressor : C:Program FilesExact Audio Copyflac-1.1.4-winbinflac.exe
Additional command line options : -V -8 -T "artist=%a" -T "title=%t" -T "album=%g" -T "date=%y" -T "tracknumber=%n" -T "genre=%m" %s

TOC of the extracted CD

Track | Start | Length | Start sector | End sector
––––––––––––––––––––––––––––-
1 | 0:00.00 | 3:44.51 | 0 | 16850
2 | 3:44.51 | 4:36.17 | 16851 | 37567
3 | 8:20.68 | 1:55.21 | 37568 | 46213
4 | 10:16.14 | 3:52.04 | 46214 | 63617
5 | 14:08.18 | 3:50.44 | 63618 | 80911
6 | 17:58.62 | 3:34.13 | 80912 | 96974
7 | 21:33.00 | 2:37.42 | 96975 | 108791
8 | 24:10.42 | 4:14.56 | 108792 | 127897
9 | 28:25.23 | 8:05.67 | 127898 | 164339
10 | 36:31.15 | 1:06.21 | 164340 | 169310
11 | 37:37.36 | 3:57.36 | 169311 | 187121
12 | 41:34.72 | 4:14.61 | 187122 | 206232
13 | 45:49.58 | 4:49.03 | 206233 | 227910
14 | 50:38.61 | 4:43.69 | 227911 | 249204
15 | 55:22.55 | 3:06.13 | 249205 | 263167
16 | 58:28.68 | 2:29.09 | 263168 | 274351
17 | 60:58.02 | 3:44.33 | 274352 | 291184
18 | 64:42.35 | 1:58.15 | 291185 | 300049
19 | 66:40.50 | 3:34.31 | 300050 | 316130

Track 1

Filename C:Documents and SettingsTerry DawesMy DocumentsMy MusicJudee Sill – Heart Food (.flac)1 – Judee Sill – There’s a Rugged Road.wav

Pre-gap length 0:00:02.00

Peak level 94.6 %
Track quality 100.0 %
Test CRC 4526B1C9
Copy CRC 4526B1C9
Accurately ripped (confidence 6) [FEF269B4]
Copy OK

Track 2

Filename C:Documents and SettingsTerry DawesMy DocumentsMy MusicJudee Sill – Heart Food (.flac)2 – Judee Sill – The Kiss.wav

Pre-gap length 0:00:01.22

Peak level 94.6 %
Track quality 100.0 %
Test CRC 254C320C
Copy CRC 254C320C
Accurately ripped (confidence 7) [DAC464F9]
Copy OK

Track 3

Filename C:Documents and SettingsTerry DawesMy DocumentsMy MusicJudee Sill – Heart Food (.flac)3 – Judee Sill – The Pearl.wav

Pre-gap length 0:00:01.41

Peak level 87.6 %
Track quality 100.0 %
Test CRC C6173D54
Copy CRC C6173D54
Accurately ripped (confidence 7) [CCD7EB9D]
Copy OK

Track 4

Filename C:Documents and SettingsTerry DawesMy DocumentsMy MusicJudee Sill – Heart Food (.flac)4 – Judee Sill – Down Where the Valleys are Low.wav

Pre-gap length 0:00:01.00

Peak level 90.5 %
Track quality 100.0 %
Test CRC C0C12437
Copy CRC C0C12437
Accurately ripped (confidence 7) [7DA83725]
Copy OK

Track 5

Filename C:Documents and SettingsTerry DawesMy DocumentsMy MusicJudee Sill – Heart Food (.flac)5 – Judee Sill – The Vigilante.wav

Pre-gap length 0:00:02.50

Peak level 94.6 %
Track quality 100.0 %
Test CRC 80799376
Copy CRC 80799376
Accurately ripped (confidence 7) [0D23F7C2]
Copy OK

Track 6

Filename C:Documents and SettingsTerry DawesMy DocumentsMy MusicJudee Sill – Heart Food (.flac)6 – Judee Sill – Soldier of the Heart.wav

Pre-gap length 0:00:01.04

Peak level 94.6 %
Track quality 99.9 %
Test CRC 79D40F8C
Copy CRC 79D40F8C
Accurately ripped (confidence 7) [F62F171C]
Copy OK

Track 7

Filename C:Documents and SettingsTerry DawesMy DocumentsMy MusicJudee Sill – Heart Food (.flac)7 – Judee Sill – The Phoenix.wav

Pre-gap length 0:00:01.36

Peak level 94.6 %
Track quality 100.0 %
Test CRC 686B5695
Copy CRC 686B5695
Accurately ripped (confidence 7) [B5F0842E]
Copy OK

Track 8

Filename C:Documents and SettingsTerry DawesMy DocumentsMy MusicJudee Sill – Heart Food (.flac)8 – Judee Sill – When the Bridegroom Comes.wav

Pre-gap length 0:00:02.22

Peak level 94.6 %
Track quality 100.0 %
Test CRC 8F039FD7
Copy CRC 8F039FD7
Accurately ripped (confidence 7) [CF3E6FA6]
Copy OK

Track 9

Filename C:Documents and SettingsTerry DawesMy DocumentsMy MusicJudee Sill – Heart Food (.flac)9 – Judee Sill – The Donor.wav

Peak level 94.6 %
Track quality 100.0 %
Test CRC 8EDF8A4E
Copy CRC 8EDF8A4E
Accurately ripped (confidence 7) [AB249CDF]
Copy OK

Track 10

Filename C:Documents and SettingsTerry DawesMy DocumentsMy MusicJudee Sill – Heart Food (.flac)10 – Judee Sill – Jig.wav

Pre-gap length 0:00:16.53

Peak level 27.5 %
Track quality 100.0 %
Test CRC 64A2BE29
Copy CRC 64A2BE29
Accurately ripped (confidence 7) [26CE89F1]
Copy OK

Track 11

Filename C:Documents and SettingsTerry DawesMy DocumentsMy MusicJudee Sill – Heart Food (.flac)11 – Judee Sill – The Desperado (outtake).wav

Pre-gap length 0:00:03.60

Peak level 63.5 %
Track quality 100.0 %
Test CRC FEBF75A7
Copy CRC FEBF75A7
Accurately ripped (confidence 7) [12391DB7]
Copy OK

Track 12

Filename C:Documents and SettingsTerry DawesMy DocumentsMy MusicJudee Sill – Heart Food (.flac)12 – Judee Sill – The Kiss (Demo).wav

Pre-gap length 0:00:02.41

Peak level 96.6 %
Track quality 100.0 %
Test CRC D7F49E3F
Copy CRC D7F49E3F
Accurately ripped (confidence 7) [8A448250]
Copy OK

Track 13

Filename C:Documents and SettingsTerry DawesMy DocumentsMy MusicJudee Sill – Heart Food (.flac)13 – Judee Sill – Down Where the Valleys are Low (Demo).wav

Pre-gap length 0:00:01.46

Peak level 81.1 %
Track quality 100.0 %
Test CRC 6887E344
Copy CRC 6887E344
Accurately ripped (confidence 7) [4FC1D5A4]
Copy OK

Track 14

Filename C:Documents and SettingsTerry DawesMy DocumentsMy MusicJudee Sill – Heart Food (.flac)14 – Judee Sill – The Donor (Demo).wav

Pre-gap length 0:00:01.42

Peak level 77.2 %
Track quality 99.9 %
Test CRC 457F30C2
Copy CRC 457F30C2
Accurately ripped (confidence 7) [00323446]
Copy OK

Track 15

Filename C:Documents and SettingsTerry DawesMy DocumentsMy MusicJudee Sill – Heart Food (.flac)15 – Judee Sill – Soldier of the Heart (Demo).wav

Peak level 77.1 %
Track quality 100.0 %
Test CRC A84481C9
Copy CRC A84481C9
Accurately ripped (confidence 7) [70F80299]
Copy OK

Track 16

Filename C:Documents and SettingsTerry DawesMy DocumentsMy MusicJudee Sill – Heart Food (.flac)16 – Judee Sill – The Phoenix (Demo).wav

Pre-gap length 0:00:02.36

Peak level 64.4 %
Track quality 100.0 %
Test CRC 33514E99
Copy CRC 33514E99
Accurately ripped (confidence 7) [D6E727DA]
Copy OK

Track 17

Filename C:Documents and SettingsTerry DawesMy DocumentsMy MusicJudee Sill – Heart Food (.flac)17 – Judee Sill – The Vigilante (Demo).wav

Pre-gap length 0:00:01.80

Peak level 68.9 %
Track quality 99.9 %
Test CRC EA2297DB
Copy CRC EA2297DB
Accurately ripped (confidence 7) [AAD7D21D]
Copy OK

Track 18

Filename C:Documents and SettingsTerry DawesMy DocumentsMy MusicJudee Sill – Heart Food (.flac)18 – Judee Sill – The Pearl (Demo).wav

Pre-gap length 0:00:01.13

Peak level 74.6 %
Track quality 99.9 %
Test CRC 46F5D9AB
Copy CRC 46F5D9AB
Accurately ripped (confidence 7) [020000AD]
Copy OK

Track 19

Filename C:Documents and SettingsTerry DawesMy DocumentsMy MusicJudee Sill – Heart Food (.flac)19 – Judee Sill – There’s a Rugged Road (Demo).wav

Pre-gap length 0:00:01.06

Peak level 69.4 %
Track quality 100.0 %
Test CRC A645B7B9
Copy CRC A645B7B9
Accurately ripped (confidence 7) [01CB8A78]
Copy OK

All tracks accurately ripped

No errors occurred

End of status report

cuetools report:
[CUETools log; Date: 2017. 01. 13. 17:35:16; Version: 2.1.6]
[CTDB TOCID: s1ypu0N834kZOVzmISneH196twk-] found.
Track | CTDB Status
1 | (2/2) Accurately ripped
2 | (2/2) Accurately ripped
3 | (2/2) Accurately ripped
4 | (2/2) Accurately ripped
5 | (2/2) Accurately ripped
6 | (2/2) Accurately ripped
7 | (2/2) Accurately ripped
8 | (2/2) Accurately ripped
9 | (1/2) Accurately ripped
10 | (1/2) Accurately ripped
11 | (1/2) Accurately ripped
12 | (1/2) Accurately ripped
13 | (1/2) Accurately ripped
14 | (1/2) Accurately ripped
15 | (1/2) Accurately ripped
16 | (1/2) Accurately ripped
17 | (1/2) Accurately ripped
18 | (1/2) Accurately ripped
19 | (1/2) Accurately ripped
[AccurateRip ID: 003140bc-02b3c4e7-f1107713] found.
Track [ CRC | V2 ] Status
01 [fef269b4|ec382cde] (08+08/16) Accurately ripped
02 [dac464f9|6b40dade] (09+08/17) Accurately ripped
03 [ccd7eb9d|e41b7e92] (08+08/16) Accurately ripped
04 [7da83725|e0d58a56] (09+08/17) Accurately ripped
05 [0d23f7c2|d7962ab1] (09+08/17) Accurately ripped
06 [f62f171c|5bb12201] (09+08/17) Accurately ripped
07 [b5f0842e|9878a2e9] (09+08/17) Accurately ripped
08 [cf3e6fa6|34134465] (09+08/17) Accurately ripped
09 [ab249cdf|f5fc9c23] (09+08/17) Accurately ripped
10 [26ce89f1|9e03e5c9] (09+08/17) Accurately ripped
11 [12391db7|c535f2a6] (09+08/17) Accurately ripped
12 [8a448250|c41f8ed7] (09+09/18) Accurately ripped
13 [4fc1d5a4|7746f1b6] (09+08/17) Accurately ripped
14 [00323446|3d74320b] (09+08/17) Accurately ripped
15 [70f80299|46895dd5] (09+08/17) Accurately ripped
16 [d6e727da|f38f78f1] (09+08/17) Accurately ripped
17 [aad7d21d|f35127be] (09+08/17) Accurately ripped
18 [020000ad|914cc3d2] (09+08/17) Accurately ripped
19 [01cb8a78|3a93eee2] (09+08/17) Accurately ripped

Track Peak [ CRC32 ] [W/O NULL] [ LOG ]
– 96,6 [F45B8649] [7C355F42]
01 94,6 [4526B1C9] [56D1E0E2] CRC32
02 94,6 [254C320C] [21B6A7DC] CRC32
03 87,6 [C6173D54] [7E98070C] CRC32
04 90,5 [C0C12437] [D4A3F449] CRC32
05 94,6 [80799376] [3382B86A] CRC32
06 94,6 [79D40F8C] [BCC0A909] CRC32
07 94,6 [686B5695] [1130B408] CRC32
08 94,6 [8F039FD7] [DDD0E97E] CRC32
09 94,6 [8EDF8A4E] [B0FA091B] CRC32
10 27,5 [64A2BE29] [AD2F4200] CRC32
11 63,5 [FEBF75A7] [8D25E464] CRC32
12 96,6 [D7F49E3F] [91B09518] CRC32
13 81,1 [6887E344] [70EC7B51] CRC32
14 77,2 [457F30C2] [84E0BA64] CRC32
15 77,1 [A84481C9] [0FCB5809] CRC32
16 64,4 [33514E99] [0FA54EED] CRC32
17 68,9 [EA2297DB] [81E397AE] CRC32
18 74,6 [46F5D9AB] [4FB3B0F4] CRC32
19 69,4 [A645B7B9] [099A7C3C] CRC32

original uploader unknown

Judee Sill – Heart Food (1973) (Limited Edition) Download, Warez, DDL, Free, Full Album, Torrent, Legal.

Download