Joseph Keilberth – Wagner: Siegfried (2006)

Download
Joseph Keilberth - Wagner: Siegfried (2006)

Joseph Keilberth – Wagner: Siegfried (2006)
EAC | FLAC (image+.cue, log) | Covers Included | 03:49:01 | 1,39 Gb
Genre: Opera | Label: Testament | Catalog: 1392

The first release of the first stereo recording of the work, the historical importance of this set of Wagner’s Siegfried is undeniable. Recorded by Decca at the 1955 Bayreuth Festival, this performance directed by Joseph Keilberth was to have been issued as part of the first complete Ring cycle. But persuaded that only a studio recording could do the work justice, Decca decided to shelve Keilberth’s performance, a decision that led to Georg Solti recording Siegfried with the Vienna Philharmonic and ultimately to the release of a Ring cycle that many still regard as the finest ever recorded. But aside from its inherent historical value, what’s its aesthetic value? While much better than average, Keilberth’s Siegfried doesn’t challenge the established order. The casting is mostly terrific with the youthful Wolfgang Windgassen in the title role, the masterful Hans Hotter as Wotan, the cunning Paul Kuen as Mime, the deceitful Gustav Neidlinger as Alberich, the creepy but not especially convincing Maria von Ilosvay as Erde, and the unsurpassed Astrid Varnay as the most passionate Brünnhilde yet recorded. The conducting is mostly acceptable but rarely more than that. Keilberth was a direct and unaffected conductor, qualities that do clarify the texture and elucidate the action but that don’t tap the dramatic, emotional, or spiritual depths of the work. The recording is, for its time and place, quite wonderful. Aside from the obvious audience and ambient noises – sword forging is apt to be a clangorous business – the recording captures nearly every detail of the performance with amazing fidelity. Listeners who already know and love Solti’s Siegfried, Krauss’ Siegfried, one or both of Furtwängler’s Siegfrieds, and one or more of Knapperstbusch’s Siegfrieds may want to check out Keilberth’s. Listeners who don’t already know any of those performances are directed to them before checking out this one.

AllMusic

Joseph Keilberth - Wagner: Siegfried (2006)

Track List:

CD 1:
01. Prelude
02. Zwangvolle Plage!
03. Hoiho! Hoiho! Hau’ ein!
04. Da hast du die Stucken
05. Als zullendes Kind zog ich dich auf
06. Vieles lehrtest du, Mime
07. Einst lag wimmernd ein Weib
08. Und diese Stucken sollst du mir schmieden
09. Da sturmt er hin!
10. Heil dir, weiser Schmied!
11. Hier sitz’ ich am Herd
12. Was zu wissen dir frommt
13. Die Stucken! Das Schwert!

EAC Log
Exact Audio Copy V0.99 prebeta 5 from 4. May 2009

Отчёт EAC об извлечении, выполненном 25. декабря 2011, 19:48

Joseph Keilberth – Chor and Orchester der Bayreuther Festspiele / Wagner – Siegfried – Bayreuth 1955 [Disc 1]

Дисковод: _NEC DVD_RW ND-3570A Adapter: 3 ID: 1

Режим чтения : Достоверность
Использование точного потока : Да
Отключение кэша аудио : Да
Использование указателей C2 : Нет

Коррекция смещения при чтении : 48
Способность читать области Lead-in и Lead-out : Нет
Заполнение пропущенных сэмплов тишиной : Да
Удаление блоков с тишиной в начале и конце : Нет
При вычислениях CRC использовались нулевые сэмплы : Да
Интерфейс : Установленный внешний ASPI-интерфейс

Выходной формат : Пользовательский кодировщик
Выбранный битрейт : 128 kBit/s
Качество : Высокий
Добавление ID3-тэга : Нет
Утилита сжатия : C:Program FilesExact Audio CopyFlacflac.exe
Дополнительные параметры : -8 -V -T "ARTIST=%a" -T "TITLE=%t" -T "ALBUM=%g" -T "DATE=%y" -T "TRACKNUMBER=%n" -T "GENRE=%m" -T "COMMENT=EAC FLAC -8" %s

TOC извлечённого CD

Трек | Старт | Длительность | Начальный сектор | Конечный сектор
––––––––––––––––––––––––––––––––––-
1 | 0:00.00 | 3:12.02 | 0 | 14401
2 | 3:12.02 | 3:39.13 | 14402 | 30839
3 | 6:51.15 | 1:46.32 | 30840 | 38821
4 | 8:37.47 | 2:19.18 | 38822 | 49264
5 | 10:56.65 | 1:24.00 | 49265 | 55564
6 | 12:20.65 | 8:25.45 | 55565 | 93484
7 | 20:46.35 | 5:06.10 | 93485 | 116444
8 | 25:52.45 | 1:31.35 | 116445 | 123304
9 | 27:24.05 | 1:43.65 | 123305 | 131094
10 | 29:07.70 | 3:20.02 | 131095 | 146096
11 | 32:27.72 | 9:05.23 | 146097 | 186994
12 | 41:33.20 | 6:58.15 | 186995 | 218359
13 | 48:31.35 | 2:51.25 | 218360 | 231209

Характеристики диапазона извлечения и сообщения об ошибках

Выбранный диапазон

Имя файла F:Exact Audio CopyWagner – Der Ring des Nibelungen – Keilberth3.SiegfriedCD1Joseph Keilberth – Chor and Orchester der Bayreuther Festspiele – Wagner – Siegfried – Bayreuth 1955 [Disc 1].wav

Пиковый уровень 91.2 %
Качество диапазона 100.0 %
CRC теста 4131DBC1
CRC копии 4131DBC1
Копирование… OK

Ошибок не произошло

AccurateRip: сводка

Трек 1 точное извлечение (доверие 3) [4A4F25C4]
Трек 2 точное извлечение (доверие 3) [787FE86B]
Трек 3 точное извлечение (доверие 3) [395F2000]
Трек 4 точное извлечение (доверие 3) [0F64619E]
Трек 5 точное извлечение (доверие 3) [6F9A90F1]
Трек 6 точное извлечение (доверие 3) [A9ED5B56]
Трек 7 точное извлечение (доверие 3) [1D0C0FDC]
Трек 8 точное извлечение (доверие 3) [F63097D5]
Трек 9 точное извлечение (доверие 3) [D655B6FF]
Трек 10 точное извлечение (доверие 3) [A30A1E1E]
Трек 11 точное извлечение (доверие 3) [2CBDA65D]
Трек 12 точное извлечение (доверие 3) [2AE9CF42]
Трек 13 точное извлечение (доверие 2) [B27D00E0]

Все треки извлечены точно

Конец отчёта

CUETools Log
[CUETools log; Date: 11.02.2017 21:52:24; Version: 2.1.5]
[CTDB TOCID: KIkszIoMLp51iKCgVMd6AfJl56I-] found.
Track | CTDB Status
1 | (35/35) Accurately ripped
2 | (34/35) Accurately ripped
3 | (35/35) Accurately ripped
4 | (35/35) Accurately ripped
5 | (35/35) Accurately ripped
6 | (35/35) Accurately ripped
7 | (33/35) Accurately ripped
8 | (35/35) Accurately ripped
9 | (35/35) Accurately ripped
10 | (35/35) Accurately ripped
11 | (34/35) Accurately ripped
12 | (32/35) Accurately ripped
13 | (33/35) Accurately ripped
[AccurateRip ID: 0015e8ee-00e1abe5-c50c0a0d] found.
Track [ CRC | V2 ] Status
01 [4a4f25c4|63100e1b] (04+12/72) Accurately ripped
02 [787fe86b|1b81277d] (04+12/73) Accurately ripped
03 [395f2000|87f332eb] (04+12/73) Accurately ripped
04 [0f64619e|75f7507f] (04+12/73) Accurately ripped
05 [6f9a90f1|ba256035] (04+12/73) Accurately ripped
06 [a9ed5b56|d13bd1f4] (04+12/73) Accurately ripped
07 [1d0c0fdc|74f5959a] (04+12/72) Accurately ripped
08 [f63097d5|e04b2aca] (04+12/73) Accurately ripped
09 [d655b6ff|09f43213] (04+12/73) Accurately ripped
10 [a30a1e1e|0a1e6319] (04+12/73) Accurately ripped
11 [2cbda65d|d5f7749d] (04+12/72) Accurately ripped
12 [2ae9cf42|f2b09572] (04+12/72) Accurately ripped
13 [b27d00e0|649ef828] (03+12/71) Accurately ripped
Offsetted by 12:
01 [618e5b90] (23/72) Accurately ripped
02 [c74ac743] (23/73) Accurately ripped
03 [283ed156] (23/73) Accurately ripped
04 [9037d8dc] (23/73) Accurately ripped
05 [cebeb2bc] (23/73) Accurately ripped
06 [2d16ad50] (23/73) Accurately ripped
07 [572891b9] (23/72) Accurately ripped
08 [9900f3b7] (23/73) Accurately ripped
09 [dc03a9cd] (23/73) Accurately ripped
10 [6a3c15cb] (23/73) Accurately ripped
11 [52ec829a] (23/72) Accurately ripped
12 [f8371fed] (23/72) Accurately ripped
13 [4f5327e5] (23/71) Accurately ripped
Offsetted by -6:
01 [96440672] (00/72) No match (V2 was not tested)
02 [d4dcf697] (00/73) No match (V2 was not tested)
03 [ed1bdb28] (00/73) No match (V2 was not tested)
04 [ddc34765] (00/73) No match (V2 was not tested)
05 [f5f387a7] (00/73) No match (V2 was not tested)
06 [4beb24dd] (00/73) No match (V2 was not tested)
07 [df78bdaa] (00/72) No match (V2 was not tested)
08 [31b30933] (00/73) No match (V2 was not tested)
09 [68a1bfa1] (00/73) No match (V2 was not tested)
10 [2fd3c8a2] (00/73) No match (V2 was not tested)
11 [d48d6ffd] (00/72) No match (V2 was not tested)
12 [4ce66374] (00/72) No match (V2 was not tested)
13 [cb314e36] (00/71) No match (V2 was not tested)

Track Peak [ CRC32 ] [W/O NULL] [ LOG ]
– 91,2 [4131DBC1] [9C61CA3F] CRC32
01 91,2 [3A0B4D74] [5193F308]
02 91,2 [AA3BAAE7] [E5E07CC8]
03 91,2 [2825536E] [0C49EE39]
04 91,2 [11C0976E] [A9793F38]
05 91,2 [9E452EF7] [3F1E90D5]
06 91,2 [D9F798AA] [FFD27B53]
07 91,2 [5BF84539] [315D104A]
08 91,2 [1DA1286E] [01C90C80]
09 91,2 [599D8097] [52673248]
10 91,2 [36A8AD81] [61595258]
11 91,2 [C9D0620D] [032DF30E]
12 91,2 [D8C7ABED] [1B03D41F]
13 91,2 [5B446FF6] [E7CC1B15]

CD 2:
01. Verfluchtes Licht!
02. Heda! Du Fauler!
03. Bist du es, Kind?
04. Fuhltest du nie im finstren Wald
05. Her mit den Stucken
06. Notung! Notung! Neidliches Schwert!
07. Hoho! Hoho! Hohei!
08. Vorspiel
09. In Wald und Nacht
10. Zur Neidhohle fuhr ich bei Nacht
11. Mit mir nicht
12. Fafner! Fafner! Erwache, Wurm!
13. Nun, Alberich, das schlug fehl
14. Wir sind zur Stelle
15. Dass der mein Vater nicht ist

EAC Log
Exact Audio Copy V0.99 prebeta 5 from 4. May 2009

Отчёт EAC об извлечении, выполненном 25. декабря 2011, 22:08

Joseph Keilberth – Chor and Orchester der Bayreuther Festspiele / Wagner – Siegfried – Bayreuth 1955 [Disc 2]

Дисковод: _NEC DVD_RW ND-3570A Adapter: 3 ID: 0

Режим чтения : Достоверность
Использование точного потока : Да
Отключение кэша аудио : Да
Использование указателей C2 : Нет

Коррекция смещения при чтении : 48
Способность читать области Lead-in и Lead-out : Нет
Заполнение пропущенных сэмплов тишиной : Да
Удаление блоков с тишиной в начале и конце : Нет
При вычислениях CRC использовались нулевые сэмплы : Да
Интерфейс : Установленный внешний ASPI-интерфейс

Выходной формат : Пользовательский кодировщик
Выбранный битрейт : 128 kBit/s
Качество : Высокий
Добавление ID3-тэга : Нет
Утилита сжатия : C:Program FilesExact Audio CopyFlacflac.exe
Дополнительные параметры : -8 -V -T "ARTIST=%a" -T "TITLE=%t" -T "ALBUM=%g" -T "DATE=%y" -T "TRACKNUMBER=%n" -T "GENRE=%m" -T "COMMENT=EAC FLAC -8" %s

TOC извлечённого CD

Трек | Старт | Длительность | Начальный сектор | Конечный сектор
––––––––––––––––––––––––––––––––––-
1 | 0:00.00 | 1:06.42 | 0 | 4991
2 | 1:06.42 | 0:28.00 | 4992 | 7091
3 | 1:34.42 | 2:58.65 | 7092 | 20506
4 | 4:33.32 | 4:43.20 | 20507 | 41751
5 | 9:16.52 | 3:29.60 | 41752 | 57486
6 | 12:46.37 | 7:37.28 | 57487 | 91789
7 | 20:23.65 | 6:29.37 | 91790 | 121001
8 | 26:53.27 | 5:16.10 | 121002 | 144711
9 | 32:09.37 | 2:05.55 | 144712 | 154141
10 | 34:15.17 | 6:09.03 | 154142 | 181819
11 | 40:24.20 | 2:40.30 | 181820 | 193849
12 | 43:04.50 | 2:43.50 | 193850 | 206124
13 | 45:48.25 | 3:16.72 | 206125 | 220896
14 | 49:05.22 | 6:08.55 | 220897 | 248551
15 | 55:14.02 | 1:46.73 | 248552 | 256574

Характеристики диапазона извлечения и сообщения об ошибках

Выбранный диапазон

Имя файла F:Exact Audio CopyWagner – Der Ring des Nibelungen – Keilberth3.SiegfriedCD2Joseph Keilberth – Chor and Orchester der Bayreuther Festspiele – Wagner – Siegfried – Bayreuth 1955 [Disc 2].wav

Пиковый уровень 91.2 %
Качество диапазона 99.8 %
CRC теста 490CAD88
CRC копии 490CAD88
Копирование… OK

Ошибок не произошло

AccurateRip: сводка

Трек 1 точное извлечение (доверие 3) [CFC20354]
Трек 2 точное извлечение (доверие 3) [5DFB69B0]
Трек 3 точное извлечение (доверие 3) [D75E8DBE]
Трек 4 точное извлечение (доверие 3) [F008884B]
Трек 5 точное извлечение (доверие 3) [97E96937]
Трек 6 точное извлечение (доверие 3) [575BAF2E]
Трек 7 точное извлечение (доверие 3) [38052919]
Трек 8 точное извлечение (доверие 3) [795C4DC2]
Трек 9 точное извлечение (доверие 3) [F173F1C5]
Трек 10 точное извлечение (доверие 3) [471ABA1C]
Трек 11 точное извлечение (доверие 3) [A929CEA7]
Трек 12 точное извлечение (доверие 3) [2569C8AD]
Трек 13 точное извлечение (доверие 3) [83B66D49]
Трек 14 точное извлечение (доверие 3) [FC0E7812]
Трек 15 точное извлечение (доверие 2) [FE7ABE0A]

Все треки извлечены точно

Конец отчёта

CUETools Log
[CUETools log; Date: 11.02.2017 21:52:51; Version: 2.1.5]
[CTDB TOCID: buXWUkLajv1m_DmWt6CNyAHQKpk-] found.
Track | CTDB Status
1 | (33/34) Accurately ripped
2 | (33/34) Accurately ripped
3 | (32/34) Accurately ripped
4 | (31/34) Accurately ripped
5 | (34/34) Accurately ripped
6 | (34/34) Accurately ripped
7 | (33/34) Accurately ripped
8 | (33/34) Accurately ripped
9 | (34/34) Accurately ripped
10 | (34/34) Accurately ripped
11 | (33/34) Accurately ripped
12 | (33/34) Accurately ripped
13 | (34/34) Accurately ripped
14 | (31/34) Accurately ripped
15 | (32/34) Accurately ripped
[AccurateRip ID: 001dc63f-015fc3ac-db0d5d0f] found.
Track [ CRC | V2 ] Status
01 [cfc20354|9609fb10] (04+11/72) Accurately ripped
02 [5dfb69b0|fcdc2fad] (04+11/72) Accurately ripped
03 [d75e8dbe|1c5c3b00] (04+11/72) Accurately ripped
04 [f008884b|9f13be24] (04+11/71) Accurately ripped
05 [97e96937|0a6d8624] (04+11/72) Accurately ripped
06 [575baf2e|73cf064a] (04+11/72) Accurately ripped
07 [38052919|056bb050] (04+11/71) Accurately ripped
08 [795c4dc2|518161f3] (04+11/71) Accurately ripped
09 [f173f1c5|53c33232] (04+11/72) Accurately ripped
10 [471aba1c|930eadb7] (04+11/72) Accurately ripped
11 [a929cea7|33a4dfb3] (04+11/72) Accurately ripped
12 [2569c8ad|1207677f] (04+11/71) Accurately ripped
13 [83b66d49|efc322bb] (04+11/72) Accurately ripped
14 [fc0e7812|df613648] (04+11/72) Accurately ripped
15 [fe7abe0a|e608bcc2] (03+11/71) Accurately ripped
Offsetted by 12:
01 [092415c0] (24/72) Accurately ripped
02 [ce8528e9] (24/72) Accurately ripped
03 [7c730c18] (24/72) Accurately ripped
04 [cec55e40] (24/71) Accurately ripped
05 [2a8927a2] (24/72) Accurately ripped
06 [06c83cd1] (24/72) Accurately ripped
07 [ecee7ab7] (24/71) Accurately ripped
08 [88e4677f] (24/71) Accurately ripped
09 [0cf50f10] (24/72) Accurately ripped
10 [27b0e447] (24/72) Accurately ripped
11 [9998eac3] (24/72) Accurately ripped
12 [ffa9e074] (24/71) Accurately ripped
13 [2b240e19] (24/72) Accurately ripped
14 [e9e2195d] (24/72) Accurately ripped
15 [b2cb920d] (24/71) Accurately ripped
Offsetted by -102:
01 [a4a2f9c5] (00/72) No match (V2 was not tested)
02 [b1091d6c] (00/72) No match (V2 was not tested)
03 [93657d5f] (00/72) No match (V2 was not tested)
04 [3808b28e] (00/71) No match (V2 was not tested)
05 [fe3098eb] (00/72) No match (V2 was not tested)
06 [ee898c0c] (00/72) No match (V2 was not tested)
07 [2f854490] (00/71) No match (V2 was not tested)
08 [45aa4cd0] (00/71) No match (V2 was not tested)
09 [c52846ba] (00/72) No match (V2 was not tested)
10 [c5e018fe] (00/72) No match (V2 was not tested)
11 [c67ed437] (00/72) No match (V2 was not tested)
12 [525cd323] (00/71) No match (V2 was not tested)
13 [fe6d35e3] (00/72) No match (V2 was not tested)
14 [9f9f5cc8] (00/72) No match (V2 was not tested)
15 [a8b4cf65] (00/71) No match (V2 was not tested)
Offsetted by -6:
01 [4be77406] (00/72) No match (V2 was not tested)
02 [ae250207] (00/72) No match (V2 was not tested)
03 [3953604b] (00/72) No match (V2 was not tested)
04 [666033f2] (00/71) No match (V2 was not tested)
05 [fc602293] (00/72) No match (V2 was not tested)
06 [741970aa] (00/72) No match (V2 was not tested)
07 [04d4cdfa] (00/71) No match (V2 was not tested)
08 [d3d48fa4] (00/71) No match (V2 was not tested)
09 [2497a689] (00/72) No match (V2 was not tested)
10 [653f5263] (00/72) No match (V2 was not tested)
11 [166af968] (00/72) No match (V2 was not tested)
12 [ece3fa1a] (00/71) No match (V2 was not tested)
13 [1f2e3c08] (00/72) No match (V2 was not tested)
14 [4500c72c] (00/72) No match (V2 was not tested)
15 [671b2960] (00/71) No match (V2 was not tested)

Track Peak [ CRC32 ] [W/O NULL] [ LOG ]
– 91,2 [490CAD88] [058FD7E2] CRC32
01 91,2 [4ACDA781] [18771C3A]
02 91,2 [16ED4B8C] [54519EC0]
03 91,2 [7147C742] [AA2789E6]
04 91,2 [83157578] [EF8E650E]
05 91,2 [7197EC3B] [22859196]
06 91,2 [1BE13379] [0BEB7708]
07 91,2 [6057CCF2] [409654E6]
08 91,2 [C7729B81] [3FFD64CD]
09 91,2 [0CC14F80] [602F245D]
10 91,2 [F7F6BE7F] [B0FE70E9]
11 91,2 [0E2B6365] [7F51AEE9]
12 91,2 [2B58DE2D] [F475694A]
13 91,2 [8628EB13] [E09FE820]
14 91,2 [5A5ED258] [81488EB1]
15 91,2 [DC0D934D] [D8F601D5]

CD 3:
01. Aber – wie sah meine Mutter wohl aus?
02. Meine Mutter – ein Menschenweib!
03. Haha! Da hatte mein Lied
04. Wer bist du, kuhner Knabe
05. Zur Kunde taugt kein Toter
06. Wohin schleichst du eilig und schlau
07. Was ihr mir nutzt
08. Willkommen, Siegfried!
09. Da lieg auch du, dunkler Wurm!
10. Vorspiel
11. Wache! Wala!
12. Stark ruft das Lied

EAC Log
Exact Audio Copy V0.99 prebeta 5 from 4. May 2009

Отчёт EAC об извлечении, выполненном 25. декабря 2011, 22:49

Joseph Keilberth – Chor and Orchester der Bayreuther Festspiele / Wagner – Siegfried – Bayreuth 1955 [Disc 3]

Дисковод: _NEC DVD_RW ND-3570A Adapter: 3 ID: 1

Режим чтения : Достоверность
Использование точного потока : Да
Отключение кэша аудио : Да
Использование указателей C2 : Нет

Коррекция смещения при чтении : 48
Способность читать области Lead-in и Lead-out : Нет
Заполнение пропущенных сэмплов тишиной : Да
Удаление блоков с тишиной в начале и конце : Нет
При вычислениях CRC использовались нулевые сэмплы : Да
Интерфейс : Установленный внешний ASPI-интерфейс

Выходной формат : Пользовательский кодировщик
Выбранный битрейт : 128 kBit/s
Качество : Высокий
Добавление ID3-тэга : Нет
Утилита сжатия : C:Program FilesExact Audio CopyFlacflac.exe
Дополнительные параметры : -8 -V -T "ARTIST=%a" -T "TITLE=%t" -T "ALBUM=%g" -T "DATE=%y" -T "TRACKNUMBER=%n" -T "GENRE=%m" -T "COMMENT=EAC FLAC -8" %s

TOC извлечённого CD

Трек | Старт | Длительность | Начальный сектор | Конечный сектор
––––––––––––––––––––––––––––––––––-
1 | 0:00.00 | 2:19.35 | 0 | 10459
2 | 2:19.35 | 6:08.55 | 10460 | 38114
3 | 8:28.15 | 5:17.50 | 38115 | 61939
4 | 13:45.65 | 4:03.47 | 61940 | 80211
5 | 17:49.37 | 2:07.00 | 80212 | 89736
6 | 19:56.37 | 2:40.13 | 89737 | 101749
7 | 22:36.50 | 2:32.27 | 101750 | 113176
8 | 25:09.02 | 8:26.50 | 113177 | 151176
9 | 33:35.52 | 9:16.40 | 151177 | 192916
10 | 42:52.17 | 2:04.35 | 192917 | 202251
11 | 44:56.52 | 1:55.00 | 202252 | 210876
12 | 46:51.52 | 10:17.23 | 210877 | 257174

Характеристики диапазона извлечения и сообщения об ошибках

Выбранный диапазон

Имя файла F:Exact Audio CopyWagner – Der Ring des Nibelungen – Keilberth3.SiegfriedCD3Joseph Keilberth – Chor and Orchester der Bayreuther Festspiele – Wagner – Siegfried – Bayreuth 1955 [Disc 3].wav

Пиковый уровень 91.2 %
Качество диапазона 100.0 %
CRC теста F041E5C6
CRC копии F041E5C6
Копирование… OK

Ошибок не произошло

AccurateRip: сводка

Трек 1 точность не определена (достоверность 19) [703361B5], AccurateRip вернул [CFEEF93D]
Трек 2 точность не определена (достоверность 19) [2C3003A1], AccurateRip вернул [C2309E1B]
Трек 3 точность не определена (достоверность 19) [4AB0AE7B], AccurateRip вернул [01649535]
Трек 4 точность не определена (достоверность 19) [67D388BA], AccurateRip вернул [7A2EA45A]
Трек 5 точность не определена (достоверность 19) [732F43B5], AccurateRip вернул [BA793168]
Трек 6 точность не определена (достоверность 19) [E893182A], AccurateRip вернул [B529DEB9]
Трек 7 точность не определена (достоверность 19) [82E24BB1], AccurateRip вернул [4F439497]
Трек 8 точность не определена (достоверность 19) [7603AB4B], AccurateRip вернул [A94F42A0]
Трек 9 точность не определена (достоверность 19) [B6772CEA], AccurateRip вернул [7562611D]
Трек 10 точность не определена (достоверность 19) [EAF8C6A3], AccurateRip вернул [113DD418]
Трек 11 точность не определена (достоверность 19) [F71A007F], AccurateRip вернул [EFD10BF4]
Трек 12 точность не определена (достоверность 18) [42C08CBC], AccurateRip вернул [DCB46166]

Ни один трек не прошёл проверки на точность
В вашей базе может быть иной вариант штамповки диска

Конец отчёта

CUETools Log
[CUETools log; Date: 11.02.2017 21:53:18; Version: 2.1.5]
[CTDB TOCID: 9RlRxi.8JpU8Iz6J_kdcMR921vg-] found.
Track | CTDB Status
1 | (35/36) Accurately ripped
2 | (35/36) Accurately ripped
3 | (36/36) Accurately ripped
4 | (36/36) Accurately ripped
5 | (36/36) Accurately ripped
6 | (36/36) Accurately ripped
7 | (36/36) Accurately ripped
8 | (34/36) Accurately ripped
9 | (35/36) Accurately ripped
10 | (36/36) Accurately ripped
11 | (36/36) Accurately ripped
12 | (35/36) Accurately ripped
[AccurateRip ID: 0017099d-00daa2bc-970d650c] found.
Track [ CRC | V2 ] Status
01 [703361b5|b4133939] (00+08/72) Accurately ripped
02 [2c3003a1|dfb4ec95] (00+08/72) Accurately ripped
03 [4ab0ae7b|79bc1b6c] (00+08/72) Accurately ripped
04 [67d388ba|0033df2a] (00+08/72) Accurately ripped
05 [732f43b5|7a54d3d2] (00+08/72) Accurately ripped
06 [e893182a|95400038] (00+08/72) Accurately ripped
07 [82e24bb1|51369f4f] (00+08/72) Accurately ripped
08 [7603ab4b|65572164] (00+08/71) Accurately ripped
09 [b6772cea|0fb9eb9b] (00+08/71) Accurately ripped
10 [eaf8c6a3|d6ba9040] (00+08/71) Accurately ripped
11 [f71a007f|5a36c282] (00+08/72) Accurately ripped
12 [42c08cbc|4b3cc33d] (00+08/69) Accurately ripped
Offsetted by 6:
01 [7c1e4a65] (05/72) Accurately ripped
02 [40f7ec23] (05/72) Accurately ripped
03 [8556593e] (05/72) Accurately ripped
04 [fac91353] (05/72) Accurately ripped
05 [79b70158] (05/72) Accurately ripped
06 [86d61818] (05/72) Accurately ripped
07 [06d0912f] (05/72) Accurately ripped
08 [c54c9260] (05/71) Accurately ripped
09 [f12194dc] (05/71) Accurately ripped
10 [5967af74] (05/71) Accurately ripped
11 [55b69c79] (05/72) Accurately ripped
12 [f463f7eb] (05/69) Accurately ripped
Offsetted by 12:
01 [cfeef93d] (23/72) Accurately ripped
02 [c2309e1b] (23/72) Accurately ripped
03 [01649535] (23/72) Accurately ripped
04 [7a2ea45a] (23/72) Accurately ripped
05 [ba793168] (23/72) Accurately ripped
06 [b529deb9] (23/72) Accurately ripped
07 [4f439497] (23/72) Accurately ripped
08 [a94f42a0] (23/71) Accurately ripped
09 [7562611d] (23/71) Accurately ripped
10 [113dd418] (23/71) Accurately ripped
11 [efd10bf4] (23/72) Accurately ripped
12 [dcb46166] (22/69) Accurately ripped
Offsetted by -679:
01 [3f10ea11] (00/72) No match (V2 was not tested)
02 [f09cfed6] (00/72) No match (V2 was not tested)
03 [25ac72c6] (00/72) No match (V2 was not tested)
04 [7a5e863d] (00/72) No match (V2 was not tested)
05 [a38f0f6f] (00/72) No match (V2 was not tested)
06 [f219a7b4] (00/72) No match (V2 was not tested)
07 [5763836b] (00/72) No match (V2 was not tested)
08 [bc1891b2] (00/71) No match (V2 was not tested)
09 [2deba8fc] (00/71) No match (V2 was not tested)
10 [b3cd813b] (00/71) No match (V2 was not tested)
11 [e525a516] (00/72) No match (V2 was not tested)
12 [2d63888a] (00/69) No match (V2 was not tested)

Track Peak [ CRC32 ] [W/O NULL] [ LOG ]
– 91,2 [F041E5C6] [FC2A9ECC] CRC32
01 90,2 [7ABE7474] [115609A7]
02 91,2 [75AC3183] [B4F59384]
03 91,2 [5635DF2B] [BE7FB174]
04 91,2 [5023F11D] [6AC8D952]
05 91,2 [30995B85] [2B866AD1]
06 91,2 [06AAB650] [A76A8D55]
07 91,2 [F7B057D2] [3D13E542]
08 91,2 [7F20776D] [55DB11ED]
09 91,2 [DB534CFA] [4F3BBD87]
10 91,2 [F56F5D83] [98743BEF]
11 91,2 [B962CE80] [2D9A88B1]
12 91,2 [486265CB] [C8105A52]

CD 4:
01. Dir Unweisen ruf’ ich ins Ohr
02. Dort seh’ ich Siegfried nah’n
03. Wohin, Knabe, heisst dich dein Weg?
04. Kenntest du mich, kuhner Spross
05. Mit zerfocht’ner Waffe wich mir der Feige?
06. Selige Ode auf sonniger Hoh!
07. Das ist kein Mann!
08. Heil dir, Sonne!
09. O Siegfried! Siegfried! Seliger Held!
10. Dort seh’ ich Grane
11. Ewig war ich, ewig bin ich

EAC Log
Exact Audio Copy V0.99 prebeta 5 from 4. May 2009

Отчёт EAC об извлечении, выполненном 25. декабря 2011, 23:36

Joseph Keilberth – Chor and Orchester der Bayreuther Festspiele / Wagner – Siegfried – Bayreuth 1955 [Disc 4]

Дисковод: _NEC DVD_RW ND-3570A Adapter: 3 ID: 0

Режим чтения : Достоверность
Использование точного потока : Да
Отключение кэша аудио : Да
Использование указателей C2 : Нет

Коррекция смещения при чтении : 48
Способность читать области Lead-in и Lead-out : Нет
Заполнение пропущенных сэмплов тишиной : Да
Удаление блоков с тишиной в начале и конце : Нет
При вычислениях CRC использовались нулевые сэмплы : Да
Интерфейс : Установленный внешний ASPI-интерфейс

Выходной формат : Пользовательский кодировщик
Выбранный битрейт : 128 kBit/s
Качество : Высокий
Добавление ID3-тэга : Нет
Утилита сжатия : C:Program FilesExact Audio CopyFlacflac.exe
Дополнительные параметры : -8 -V -T "ARTIST=%a" -T "TITLE=%t" -T "ALBUM=%g" -T "DATE=%y" -T "TRACKNUMBER=%n" -T "GENRE=%m" -T "COMMENT=EAC FLAC -8" %s

TOC извлечённого CD

Трек | Старт | Длительность | Начальный сектор | Конечный сектор
––––––––––––––––––––––––––––––––––-
1 | 0:00.00 | 3:56.42 | 0 | 17741
2 | 3:56.42 | 1:20.43 | 17742 | 23784
3 | 5:17.10 | 5:09.05 | 23785 | 46964
4 | 10:26.15 | 4:49.55 | 46965 | 68694
5 | 15:15.70 | 3:43.10 | 68695 | 85429
6 | 18:59.05 | 6:23.12 | 85430 | 114166
7 | 25:22.17 | 8:00.05 | 114167 | 150171
8 | 33:22.22 | 4:38.23 | 150172 | 171044
9 | 38:00.45 | 6:04.12 | 171045 | 198356
10 | 44:04.57 | 7:42.73 | 198357 | 233079
11 | 51:47.55 | 12:01.67 | 233080 | 287221

Характеристики диапазона извлечения и сообщения об ошибках

Выбранный диапазон

Имя файла F:Exact Audio CopyWagner – Der Ring des Nibelungen – Keilberth3.SiegfriedCD4Joseph Keilberth – Chor and Orchester der Bayreuther Festspiele – Wagner – Siegfried – Bayreuth 1955 [Disc 4].wav

Пиковый уровень 92.8 %
Качество диапазона 100.0 %
CRC теста C142C940
CRC копии C142C940
Копирование… OK

Ошибок не произошло

AccurateRip: сводка

Трек 1 точность не определена (достоверность 19) [2C0A605B], AccurateRip вернул [81C4F018]
Трек 2 точность не определена (достоверность 19) [5772AE91], AccurateRip вернул [A23C346F]
Трек 3 точность не определена (достоверность 19) [2A051C58], AccurateRip вернул [628420AF]
Трек 4 точность не определена (достоверность 19) [6E6AE46D], AccurateRip вернул [84A8F3AF]
Трек 5 точность не определена (достоверность 19) [76237BE4], AccurateRip вернул [3C9966B9]
Трек 6 точность не определена (достоверность 19) [EEAC0C3D], AccurateRip вернул [EFFB4DFB]
Трек 7 точность не определена (достоверность 19) [D5C3F65D], AccurateRip вернул [D0B1BFA2]
Трек 8 точность не определена (достоверность 19) [F0B7F9F7], AccurateRip вернул [87169C3E]
Трек 9 точность не определена (достоверность 19) [A2DA41A1], AccurateRip вернул [1A02F0B4]
Трек 10 точность не определена (достоверность 19) [F3DB0925], AccurateRip вернул [45A5D59B]
Трек 11 точность не определена (достоверность 19) [437CE78C], AccurateRip вернул [8880FF02]

Ни один трек не прошёл проверки на точность
В вашей базе может быть иной вариант штамповки диска

Конец отчёта

CUETools Log
[CUETools log; Date: 11.02.2017 21:54:09; Version: 2.1.5]
[CTDB TOCID: HvXZabIWYAbDxxdfnOnXGwQfHV8-] found.
Track | CTDB Status
1 | (34/35) Accurately ripped
2 | (35/35) Accurately ripped
3 | (34/35) Accurately ripped
4 | (35/35) Accurately ripped
5 | (34/35) Accurately ripped
6 | (35/35) Accurately ripped
7 | (34/35) Accurately ripped
8 | (35/35) Accurately ripped
9 | (34/35) Accurately ripped
10 | (33/35) Accurately ripped
11 | (32/35) Accurately ripped
[AccurateRip ID: 00154fb4-00c18e13-830ef50b] found.
Track [ CRC | V2 ] Status
01 [2c0a605b|9cd287bb] (00+17/71) Accurately ripped
02 [5772ae91|7b3d2537] (00+17/71) Accurately ripped
03 [2a051c58|fb0a8704] (00+17/71) Accurately ripped
04 [6e6ae46d|c71d423a] (00+17/71) Accurately ripped
05 [76237be4|a301f3de] (00+17/71) Accurately ripped
06 [eeac0c3d|e6d4a155] (00+17/71) Accurately ripped
07 [d5c3f65d|b9763593] (00+17/71) Accurately ripped
08 [f0b7f9f7|974c412d] (00+17/71) Accurately ripped
09 [a2da41a1|94d258a1] (00+17/71) Accurately ripped
10 [f3db0925|9b1d4563] (00+17/70) Accurately ripped
11 [437ce78c|f646b39f] (00+16/69) Accurately ripped
Offsetted by 6:
01 [735066ba] (04/71) Accurately ripped
02 [96c9e5a4] (04/71) Accurately ripped
03 [d547f64a] (04/71) Accurately ripped
04 [cacb0a8d] (04/71) Accurately ripped
05 [ad3e6897] (04/71) Accurately ripped
06 [413231d9] (04/71) Accurately ripped
07 [1402abb3] (04/71) Accurately ripped
08 [3b882855] (04/71) Accurately ripped
09 [e00d598b] (04/71) Accurately ripped
10 [6b61b013] (04/70) Accurately ripped
11 [646f9f9f] (04/69) Accurately ripped
Offsetted by 18:
01 [81c4f018] (23/71) Accurately ripped
02 [a23c346f] (23/71) Accurately ripped
03 [628420af] (23/71) Accurately ripped
04 [84a8f3af] (23/71) Accurately ripped
05 [3c9966b9] (23/71) Accurately ripped
06 [effb4dfb] (23/71) Accurately ripped
07 [d0b1bfa2] (23/71) Accurately ripped
08 [87169c3e] (23/71) Accurately ripped
09 [1a02f0b4] (23/71) Accurately ripped
10 [45a5d59b] (23/70) Accurately ripped
11 [8880ff02] (23/69) Accurately ripped
Offsetted by -12:
01 [8d89a0a0] (00/71) No match (V2 was not tested)
02 [60d9319b] (00/71) No match (V2 was not tested)
03 [c359bba3] (00/71) No match (V2 was not tested)
04 [1b7c1020] (00/71) No match (V2 was not tested)
05 [7d35441f] (00/71) No match (V2 was not tested)
06 [05b2b328] (00/71) No match (V2 was not tested)
07 [95146bf7] (00/71) No match (V2 was not tested)
08 [c49125c4] (00/71) No match (V2 was not tested)
09 [d60d8ee0] (00/71) No match (V2 was not tested)
10 [6075dba7] (00/70) No match (V2 was not tested)
11 [d921673d] (00/69) No match (V2 was not tested)
Offsetted by -6:
01 [19850251] (00/71) No match (V2 was not tested)
02 [4817c95f] (00/71) No match (V2 was not tested)
03 [a089e3a6] (00/71) No match (V2 was not tested)
04 [9bd496b6] (00/71) No match (V2 was not tested)
05 [01c100f4] (00/71) No match (V2 was not tested)
06 [7eaf4d76] (00/71) No match (V2 was not tested)
07 [7aca9da5] (00/71) No match (V2 was not tested)
08 [22e60409] (00/71) No match (V2 was not tested)
09 [23b1dc4f] (00/71) No match (V2 was not tested)
10 [9819be57] (00/70) No match (V2 was not tested)
11 [16032ac8] (00/69) No match (V2 was not tested)

Track Peak [ CRC32 ] [W/O NULL] [ LOG ]
– 92,8 [C142C940] [6700DEE0] CRC32
01 91,2 [3E77BD9A] [AC2CB255]
02 91,2 [2BBE0237] [CE4F32DD]
03 91,2 [AD290BD7] [CF2F4716]
04 92,8 [39C79517] [AA30C36A]
05 91,2 [9CCEEDEE] [802BAB6E]
06 91,2 [69787FAB] [3F45230F]
07 91,2 [1B31451C] [58BA1D47]
08 91,2 [17B92705] [99CD1473]
09 91,2 [ECCCAC94] [F3B89ADE]
10 91,2 [32CDDAA4] [3339939B]
11 91,2 [EE86B17C] [E85372FC]

Performers:
Wolfgang Windgassen
Astrid Varnay
Hans Hotter
Gustav Neidlinger
Paul Kuen
Maria von Ilosvay
Josef Greindl
Ilse Hollweg
Orchester der Bayreuther Festspiele
Joseph Keilberth

Thanks to the Original ripper (unknown)!

Download:

Joseph Keilberth – Wagner: Siegfried (2006) Download, Warez, DDL, Free, Full Album, Torrent, Legal.

Download