Jordi Savall & Hesperion XX – Samuel Scheidt – Ludi Musici, Hamburg 1621 (1997) {Fontalis-Auvidis France}

Download
Jordi Savall & Hesperion XX - Samuel Scheidt - Ludi Musici, Hamburg 1621 (1997) {Fontalis-Auvidis France}

Jordi Savall & Hesperion XX – Samuel Scheidt – Ludi Musici, Hamburg 1621 (1997) {Fontalis-Auvidis France}
EAC rip (secure mode) | FLAC (tracks)+CUE+LOG -> 308 Mb | MP3 @320 -> 144 Mb
Full Artwork @ 300 dpi (jpg) -> 35 Mb | 5% repair rar
© 1997 Fontalis / Auvidis France | ES 8559
Classical / Baroque / Chamber Music

Samuel Scheidt (baptized November 3, 1587 – March 24, 1653) was a German composer, organist and teacher of the early Baroque era. Samuel Scheidt published 4 collections entitled Ludi Musici between 1621 & 1627, whereas only the first publication (from which the present program is taken) survives complete. Scheidt continues to be the most significant of the early North German instrumental composers.

Scheidt’s Ludi Musici – of which only the first of four collections from between 1621 and 1627 survives complete – … is a mouth-wateringly diverse and inventive mixture of dance, canzona and variation, distilled from the fount of English genres as they had become disseminated. These are works which brim over with character and nonchalantly brilliant craftsmanship.

Jordi Savall & Hesperion XX - Samuel Scheidt - Ludi Musici, Hamburg 1621 (1997) {Fontalis-Auvidis France}

Personnel:
Hespèrion XX:

Jordi Savall (treble viol), Sophie Watillon (alto viol), Sergi Casademunt (tenor viol), Philippe Pierlot (bass viol), Eunice Brandao (bass viol), Lorenz Duftschmid (violone), Andrew Lawrence-King (double harp), Michael Behringer (organ, harpsichord), Pedro Estevan (percussion)

Jordi Savall – direction

recording -> Colegiata del Castillo de Cardona (Cataluña), Spain, 01/1995

Contents:
01 – Paduan a 4 voc. Cantus IV
02 – Galliard a 4 voc. Cantus VIII
03 – Courant a 4 voc. Cantus XI
04 – Courant a 4 voc. Cantus XIX
05 – Canzon a 5 voc. ad imitationem Bergamas. angl. Cantus XXVI
06 – Courant a 4 voc. Cantus XXIII
07 – Galliard a 5 voc. Cantus XXV
08 – Courant a 4 voc. Cantus XVII
09 – Galliard Battaglia a 5 voc. Cantus XXI
10 – Paduan a 4 voc. Cantus VI
11 – Galliard a 4 voc. Cantus VII
12 – Alamande a 4 voc. Cantus XVI
13 – Canzon a 5 voc. Super Cantionem Gallicam Cantus XXIX
14 – Paduan a 4 voc. Cantus V
15 – Courant Dolorosa a 4 voc. Cantus IX
16 – Courant a 4 voc. Cantus XIII
17 – Canzon a 5 voc. super o Nachbar Roland. Cantus XXVIII

EAC log
EAC extraction logfile from 10. May 2008, 15:27 for CD
Hesperion XX, Jordi Savall / Samuel Scheidt – Ludi Musici, Hamburg 1621

Used drive : PLEXTOR CD-R PX-W4012A Adapter: 1 ID: 1
Read mode : Secure with NO C2, accurate stream, disable cache
Read offset correction : 98
Overread into Lead-In and Lead-Out : Yes

Used output format : Internal WAV Routines
44.100 Hz; 16 Bit; Stereo

Other options :
Fill up missing offset samples with silence : Yes
Delete leading and trailing silent blocks : No
Installed external ASPI interface

Track 1
Filename D:AudioSamuel Scheidt – Ludi Musici, Hamburg 1621 – Hesperion XX, Jordi Savall (1997) [FLAC]1 – Paduan a 4 voc. Cantus IV.wav

Pre-gap length 0:00:02.42

Peak level 79.6 %
Track quality 100.0 %
Test CRC 7B1F5FCF
Copy CRC 7B1F5FCF
Copy OK

Track 2
Filename D:AudioSamuel Scheidt – Ludi Musici, Hamburg 1621 – Hesperion XX, Jordi Savall (1997) [FLAC]2 – Galliard a 4 voc. Cantus VIII.wav

Pre-gap length 0:00:04.29

Peak level 67.9 %
Track quality 99.9 %
Test CRC 9E4954A6
Copy CRC 9E4954A6
Copy OK

Track 3
Filename D:AudioSamuel Scheidt – Ludi Musici, Hamburg 1621 – Hesperion XX, Jordi Savall (1997) [FLAC]3 – Courant a 4 voc. Cantus XI.wav

Pre-gap length 0:00:03.06

Peak level 15.5 %
Track quality 100.0 %
Test CRC AC90E76E
Copy CRC AC90E76E
Copy OK

Track 4
Filename D:AudioSamuel Scheidt – Ludi Musici, Hamburg 1621 – Hesperion XX, Jordi Savall (1997) [FLAC]4 – Courant a 4 voc. Cantus XIX.wav

Peak level 53.8 %
Track quality 100.0 %
Test CRC 668B799F
Copy CRC 668B799F
Copy OK

Track 5
Filename D:AudioSamuel Scheidt – Ludi Musici, Hamburg 1621 – Hesperion XX, Jordi Savall (1997) [FLAC]5 – Canzon a 5 voc. ad imitationem Bergamas. angl. Cantus XXVI.wav

Pre-gap length 0:00:06.69

Peak level 61.0 %
Track quality 100.0 %
Test CRC 22BB6577
Copy CRC 22BB6577
Copy OK

Track 6
Filename D:AudioSamuel Scheidt – Ludi Musici, Hamburg 1621 – Hesperion XX, Jordi Savall (1997) [FLAC]6 – Courant a 4 voc. Cantus XXIII.wav

Pre-gap length 0:00:01.93

Peak level 53.6 %
Track quality 100.0 %
Test CRC 70CB5F29
Copy CRC 70CB5F29
Copy OK

Track 7
Filename D:AudioSamuel Scheidt – Ludi Musici, Hamburg 1621 – Hesperion XX, Jordi Savall (1997) [FLAC]7 – Galliard a 5 voc. Cantus XXV.wav

Pre-gap length 0:00:01.56

Peak level 60.2 %
Track quality 100.0 %
Test CRC 3E9C6AF4
Copy CRC 3E9C6AF4
Copy OK

Track 8
Filename D:AudioSamuel Scheidt – Ludi Musici, Hamburg 1621 – Hesperion XX, Jordi Savall (1997) [FLAC]8 – Courant a 4 voc. Cantus XVII.wav

Pre-gap length 0:00:02.80

Peak level 53.9 %
Track quality 100.0 %
Test CRC CC5AB052
Copy CRC CC5AB052
Copy OK

Track 9
Filename D:AudioSamuel Scheidt – Ludi Musici, Hamburg 1621 – Hesperion XX, Jordi Savall (1997) [FLAC]9 – Galliard Battaglia a 5 voc. Cantus XXI.wav

Pre-gap length 0:00:02.33

Peak level 88.4 %
Track quality 100.0 %
Test CRC 0D6327A8
Copy CRC 0D6327A8
Copy OK

Track 10
Filename D:AudioSamuel Scheidt – Ludi Musici, Hamburg 1621 – Hesperion XX, Jordi Savall (1997) [FLAC]10 – Paduan a 4 voc. Cantus VI.wav

Pre-gap length 0:00:07.13

Peak level 88.1 %
Track quality 100.0 %
Test CRC 8A2A37D5
Copy CRC 8A2A37D5
Copy OK

Track 11
Filename D:AudioSamuel Scheidt – Ludi Musici, Hamburg 1621 – Hesperion XX, Jordi Savall (1997) [FLAC]11 – Galliard a 4 voc. Cantus VII.wav

Pre-gap length 0:00:02.00

Peak level 51.7 %
Track quality 100.0 %
Test CRC F0D13742
Copy CRC F0D13742
Copy OK

Track 12
Filename D:AudioSamuel Scheidt – Ludi Musici, Hamburg 1621 – Hesperion XX, Jordi Savall (1997) [FLAC]12 – Alamande a 4 voc. Cantus XVI.wav

Pre-gap length 0:00:01.33

Peak level 61.0 %
Track quality 99.9 %
Test CRC 928A3C15
Copy CRC 928A3C15
Copy OK

Track 13
Filename D:AudioSamuel Scheidt – Ludi Musici, Hamburg 1621 – Hesperion XX, Jordi Savall (1997) [FLAC]13 – Canzon a 5 voc. Super Cantionem Gallicam Cantus XXIX.wav

Peak level 91.1 %
Track quality 100.0 %
Test CRC 27312D97
Copy CRC 27312D97
Copy OK

Track 14
Filename D:AudioSamuel Scheidt – Ludi Musici, Hamburg 1621 – Hesperion XX, Jordi Savall (1997) [FLAC]14 – Paduan a 4 voc. Cantus V.wav

Pre-gap length 0:00:07.60

Peak level 55.3 %
Track quality 100.0 %
Test CRC 6198B448
Copy CRC 6198B448
Copy OK

Track 15
Filename D:AudioSamuel Scheidt – Ludi Musici, Hamburg 1621 – Hesperion XX, Jordi Savall (1997) [FLAC]15 – Courant Dolorosa a 4 voc. Cantus IX.wav

Pre-gap length 0:00:03.06

Peak level 58.2 %
Track quality 100.0 %
Test CRC BD50E409
Copy CRC BD50E409
Copy OK

Track 16
Filename D:AudioSamuel Scheidt – Ludi Musici, Hamburg 1621 – Hesperion XX, Jordi Savall (1997) [FLAC]16 – Courant a 4 voc. Cantus XIII.wav

Peak level 80.4 %
Track quality 99.9 %
Test CRC A0FC7EF5
Copy CRC A0FC7EF5
Copy OK

Track 17
Filename D:AudioSamuel Scheidt – Ludi Musici, Hamburg 1621 – Hesperion XX, Jordi Savall (1997) [FLAC]17 – Canzon a 5 voc. super o Nachbar Roland. Cantus XXVIII.wav

Pre-gap length 0:00:01.50

Peak level 88.1 %
Track quality 100.0 %
Test CRC 14B1C425
Copy CRC 14B1C425
Copy OK

No errors occured

End of status report

Jordi Savall & Hesperion XX - Samuel Scheidt - Ludi Musici, Hamburg 1621 (1997) {Fontalis-Auvidis France}

Jordi Savall & Hesperion XX - Samuel Scheidt - Ludi Musici, Hamburg 1621 (1997) {Fontalis-Auvidis France}

More Alia Vox & Jordi Savall:
Jordi Savall – La Lira d’Esperia: La Viele Medievale (1996) {Auvidis}
Jordi Savall & Pedro Estevan – La Lira d’Esperia II: Galicia (2014) {Alia Vox}
Jean-Philippe Rameau – L’Orchestre de Louis XV (Le Concert des Nations, Jordi Savall) (2011) [2CD] {Alia Vox}
Jordi Savall & Hesperion XXI – Esprit des Balkans (Balkan Spirit) (2013) {Alia Vox}
Jordi Savall & Hesperion XXI – Christophorus Columbus (2006) [2CD] {Alia Vox}
Jordi Savall & Hesperion XXI – Dinastia Borgia – Chiesa e potere nel Rinascimento (2010) [3CD+DVD] {Alia Vox}

Jordi Savall & Hesperion XXI – Mare Nostrum – Orient – Occident: Dialogues (2011) [2CD] {Alia Vox}
Jordi Savall & Hesperion XXI – Le Royaume Oublie – La Tragedie Cathare (2009) [3CD] {Alia Vox}
Jordi Savall & Le Concert Des Nations – Bach – Les Quatre Ouvertures (2012) [2CD] {Alia Vox}
Jordi Savall & Hesperion XXI – Francisco Javier – La Ruta de Oriente (2007) [2CD] {Alia Vox}
Jordi Savall & Hesperion XXI – Invocation a la Nuit – Musica Notturna (2008) [2CD] {10 Alia Vox Anniversary}

Jordi Savall & Hesperion XXI – Diaspora Sefardi (1999) [2CD] {Alia Vox}
Jordi Savall & Hesperion XXI – Bal-Kan – Miel et Sang (2013) [3CD Set] {Alia Vox}
Jordi Savall & Hesperion XXI – Jeanne D’Arc: Batailles & Prisons (2012) [2CD] {Alia Vox}
Montserrat Figueras – La Voix de L’Emotion (The Voice of Emotion) [2CD] (2012) {Alia Vox}
Euskal Barrokensemble & Enrike Solinís – Euskel Antiqva: Legacy of the Land of Basque (2015) {Alia Vox} [rel. Jordi Savall]

Jordi Savall & Hesperion XXI – Jerusalem: La Ville des deux Paix (2008) [2CD] {Alia Vox}
Jordi Savall – Biber – Baroque Splendor: Missa Salisburgensis (2015) [Official Digital Download 16-44.1] {Alia Vox}
Jordi Savall – Guerre & Paix. 1614-1714 (2015) [Official Digital Download 16-44.1] {Alia Vox}
Jordi Savall – La Sublime Porte – Voix d’Istanbul 1430 – 1750 (2011) {Alia Vox}
Jordi Savall – Erasmus von Rotterdam: Eloge de la Folie (2013) [6CD Set] {Alia Vox}

Montserrat Figueras & Jordi Savall – Entremeses Del Siglo De Oro: Lope de Vega su tiempo (2003) {Alia Vox}
Jordi Savall & Montserrat Figueras – Pro Pacem: Textes, Art & Musiques pour la Paix (2012) {Alia Vox}
Jordi Savall & Hesperion XX – Couperin – Les Nations, 1726 (1986) [2CD] {2000 Naive-Astree Remaster}
Jordi Savall & Montserrat Figueras – Tarquinio Merula – Su La Cetra Amorosa, Arie E Capricci (2008) {Alia Vox}
Jordi Savall & Montserrat Figueras – El Nuevo Mundo – Folias Criollas (2010) {Alia Vox AVSA 9876}

Jordi Savall & Hesperion XXI – Orient-Occident 1200-1700 (2006) {Alia Vox}
Jordi Savall & Andrew Lawrence-King – The Celtic Viol (2009) {Alia Vox AVSA 9865}
Jordi Savall, Andrew Lawrence-King, Frank McGuire – The Celtic Viol II (2010) {Alia Vox AVSA 9878}
Jordi Savall – Marin Marais – Suitte D’un Gout Etranger, Pieces De Viole Du IV Livre, 1717 (2006) {2CDs Alia Vox}
Jordi Savall & Le Concert des Nations – Henry Purcell – The Fairy Queen & The Prophetess – Orchestral Suites (2009) {Alia Vox}

Jordi Savall – Antonio Vivaldi – La Viola Da Gamba In Concerto (2003) {Alia Vox AV9835}
Jordi Savall & Montserrat Figueras – Cançons de la Catalunya mil·lenària (2011) {Alia Vox AVSA 9881}
Jordi Savall & Hesperion XXI – Villancicos Y Danzas Criollas (2003) {Alia Vox AV9834}
Jordi Savall – Antonio Vivaldi, J.S. Bach – Magnificat & Concerti (2014) {CD with DVD5 PAL Alia Vox AVSA9909D}
Jordi Savall & Hesperion XXI – Esprit d’Armenie (2012) {Alia Vox AVSA 9892}

Jordi Savall & Le Concert des Nations – Les Éléments: Tempêtes, Orages & Fêtes Marines 1674 – 1764 (2016) {2CD Alia Vox AVSA9914}
Jordi Savall – Diego Ortiz – Recercadas del Tratado de Glosas Roma 1553 (2013) {Alia Vox AVSA9899}
Jordi Savall & Hesperion XX – Espana Antigua – Spanish Secular Music c.1200-1700 (2001) {8CD Virgin Classics}
Jordi Savall & Hesperion XXI – William Lawes – Consort Sets in Five & Six Parts (2002) {2CD Alia Vox AV9823 A+B}
Jordi Savall – Ramon Llull 1232-1316 (2016) {2CD Alia Vox AVSA9917}

Jordi Savall – Granada 1013–1526 (2016) [Official Digital Download 16-44.1] {Alia Vox}
Arianna Savall – Peiwoh (2009) {Alia Vox AV 9869}
Jordi Savall & Hesperion XXI – Orient-Occident II: Hommage a la Syrie (2013) {Alia Vox AVSA9900}
Jordi Savall – M.A. Charpentier – A La Chapelle Royale De Versailles (2014) {2CD+DVD Alia Vox AVDVD 9905}
Jordi Savall – Heinrich Ignaz Franz von Biber – Baroque Splendor (2015) {Alia Vox AVSA9912}

Ferran Savall – Impro (2014) [Official Digital Download 16-44.1] {Alia Vox} (ft. Jordi Savall)
Jordi Savall & Hesperion XX – Musicque de Joye (1978) {Astrée-Auvidis E 7724}
Jordi Savall & Hesperion XXI – Alfonso Ferrabosco – Consort Music To The Viols In 4, 5 & 6 Parts (2003) {Alia Vox AV9832}
Jordi Savall & Hesperion XX – Elizabethan Consort Music, 1558 – 1603 (1998) {Alia Vox AV 9804}
Jordi Savall, Ton Koopman, Ariane Maurette – Francois Couperin – Pieces de violes – 1728 (2012) {Alia Vox AVSA9893}

Jordi Savall & Le Concert des Nations – Tous les matins du Monde (2001) {Alia Vox CD & Bonus CD AV9821}
Jordi Savall – Alfons V El Magnanim (1396 – 1458) – El Cancionero De Montecassino (2001) {2CD Alia Vox AV9816 A+B}
Jordi Savall – Carlos V – Mille Regretz: La Cancion Del Emperador (2000) {Alia Vox AV 9814}

NEXT -> more Jordi Savall on the way…

Jordi Savall & Hesperion XX – Samuel Scheidt – Ludi Musici, Hamburg 1621 (1997) {Fontalis-Auvidis France} Download, Warez, DDL, Free, Full Album, Torrent, Legal.

Download