Jon Mark – 2 Studio Albums (1994-1996)

Download
Jon Mark - 2 Studio Albums (1994-1996)

Jon Mark – 2 Studio Albums (1994-1996)
EAC Rip | FLAC (tracks+.cue+log) – 462 MB | MP3 CBR 320 kbps (LAME 3.93) – 298 MB | Covers included
Genre: New Age | RAR 3% Rec. | Label: White Cloud

A Sunday in Autumn (1994). Jon Mark uses his electronic keyboards to produce a CD filled with incredibly evocative music. The melancholy and reflection that flow through every song on this recording are indicative of the time of year when trees go bare, the air grows cold, and winter begins to appear. Some of the songs are tinged with bittersweet memories, others are more minor-key and somber.
Asia Journey (1996). Blending his unique warm and melodic yet still distinctly ambient keyboards with a subtle yet tangible Far Eastern texture, Jon Mark has once again delivered the goods. This man can, apparently, do no wrong.
Asia Journey is worlds removed (literally) from his classics like "A Sunday in Autumn" and "The Standing Stones of Callanish", but that trademark soft glowing layering of lush synthesizers is still present. The addition of some Asian music elements, as well as occasional snippets of actual field recordings from Jon and wife Thelma Burch’s trips to Asia, adds a cloaking of timeless mystery to this CD. Less somber than "The Standing Stones of Callanish" and less overtly romantic than "A Sunday in Autumn", the overall vibe here is one of reverence combined with a mildly exotic flavor.

Jon Mark - 2 Studio Albums (1994-1996)

Jon Mark – A Sunday in Autumn (1994)
EAC Rip | FLAC (tracks+.cue+log) – 230 MB | MP3 CBR 320 kbps (LAME 3.93) – 161 MB | Covers (3 MB) included
Genre: New Age | RAR 3% Rec. | Label: White Cloud (11003-2)

Tracklist:
01. Autumn
02. Sunday Morning
03. First Snowfall
04. Afternoon, the Old Walking Track
05. Evening, Pine Logs on an Open Fire
06. Supper and Wine for One
07. Thinking of You
08. The City, the Bag Lady and the Snow
09. 2 a.m. Street Night Sounds
10. Autumn’s End

Total time: 01:07:28

EAC log
Exact Audio Copy V1.0 beta 1 from 15. November 2010

EAC extraction logfile from 18. April 2011, 14:16

Jon Mark / A Sunday in Autumn

Used drive : HL-DT-STDVD-ROM GDR8164B Adapter: 1 ID: 0

Read mode : Secure
Utilize accurate stream : Yes
Defeat audio cache : Yes
Make use of C2 pointers : No

Read offset correction : 102
Overread into Lead-In and Lead-Out : No
Fill up missing offset samples with silence : Yes
Delete leading and trailing silent blocks : No
Null samples used in CRC calculations : Yes
Used interface : Native Win32 interface for Win NT & 2000
Gap handling : Appended to previous track

Used output format : User Defined Encoder
Selected bitrate : 128 kBit/s
Quality : High
Add ID3 tag : No
Command line compressor : C:Archivos de programaExact Audio CopyFlacflac.exe
Additional command line options : -V -8 -T "artist=%a" -T "title=%t" -T "album=%g" -T "date=%y" -T "tracknumber=%n" -T "genre=%m" %s

TOC of the extracted CD

Track | Start | Length | Start sector | End sector
––––––––––––––––––––––––––––-
1 | 0:00.00 | 5:58.25 | 0 | 26874
2 | 5:58.25 | 5:33.00 | 26875 | 51849
3 | 11:31.25 | 6:57.00 | 51850 | 83124
4 | 18:28.25 | 4:26.00 | 83125 | 103074
5 | 22:54.25 | 6:51.00 | 103075 | 133899
6 | 29:45.25 | 5:31.00 | 133900 | 158724
7 | 35:16.25 | 6:27.00 | 158725 | 187749
8 | 41:43.25 | 16:42.00 | 187750 | 262899
9 | 58:25.25 | 5:36.00 | 262900 | 288099
10 | 64:01.25 | 3:26.62 | 288100 | 303611

Track 1

Filename K:EAC RipsJon Mark – 1993 – A Sunday in Autumn [FLAC]1 – Autumn.wav

Pre-gap length 0:00:02.00

Peak level 85.2 %
Extraction speed 6.3 X
Track quality 100.0 %
Test CRC 4CFE82AD
Copy CRC 4CFE82AD
Track not present in AccurateRip database
Copy OK

Track 2

Filename K:EAC RipsJon Mark – 1993 – A Sunday in Autumn [FLAC]2 – Sunday Morning.wav

Pre-gap length 0:00:03.10

Peak level 84.8 %
Extraction speed 7.2 X
Track quality 100.0 %
Test CRC 7A0C2B3F
Copy CRC 7A0C2B3F
Track not present in AccurateRip database
Copy OK

Track 3

Filename K:EAC RipsJon Mark – 1993 – A Sunday in Autumn [FLAC]3 – First Snowfall.wav

Pre-gap length 0:00:03.46

Peak level 97.7 %
Extraction speed 8.1 X
Track quality 100.0 %
Test CRC F717001D
Copy CRC F717001D
Track not present in AccurateRip database
Copy OK

Track 4

Filename K:EAC RipsJon Mark – 1993 – A Sunday in Autumn [FLAC]4 – Afternoon, the Old Walking Track.wav

Pre-gap length 0:00:07.60

Peak level 65.6 %
Extraction speed 8.1 X
Track quality 100.0 %
Test CRC F0E5B637
Copy CRC F0E5B637
Track not present in AccurateRip database
Copy OK

Track 5

Filename K:EAC RipsJon Mark – 1993 – A Sunday in Autumn [FLAC]5 – Evening, Pine Logs on an Open Fire.wav

Pre-gap length 0:00:08.26

Peak level 82.1 %
Extraction speed 8.9 X
Track quality 100.0 %
Test CRC A1F7CCB8
Copy CRC A1F7CCB8
Track not present in AccurateRip database
Copy OK

Track 6

Filename K:EAC RipsJon Mark – 1993 – A Sunday in Autumn [FLAC]6 – Supper and Wine for One.wav

Pre-gap length 0:00:10.50

Peak level 67.5 %
Extraction speed 9.8 X
Track quality 100.0 %
Test CRC 98C7C13D
Copy CRC 98C7C13D
Track not present in AccurateRip database
Copy OK

Track 7

Filename K:EAC RipsJon Mark – 1993 – A Sunday in Autumn [FLAC]7 – Thinking of You.wav

Pre-gap length 0:00:05.00

Peak level 55.2 %
Extraction speed 10.5 X
Track quality 100.0 %
Test CRC A94E6F99
Copy CRC A94E6F99
Track not present in AccurateRip database
Copy OK

Track 8

Filename K:EAC RipsJon Mark – 1993 – A Sunday in Autumn [FLAC]8 – The City, the Bag Lady and the Snow.wav

Pre-gap length 0:00:07.00

Peak level 57.2 %
Extraction speed 12.1 X
Track quality 100.0 %
Test CRC 7D4BC6ED
Copy CRC 7D4BC6ED
Track not present in AccurateRip database
Copy OK

Track 9

Filename K:EAC RipsJon Mark – 1993 – A Sunday in Autumn [FLAC]9 – 2 a.m. Street Night Sounds.wav

Pre-gap length 0:00:11.00

Peak level 37.9 %
Extraction speed 11.5 X
Track quality 100.0 %
Test CRC 90B2E9B8
Copy CRC 90B2E9B8
Track not present in AccurateRip database
Copy OK

Track 10

Filename K:EAC RipsJon Mark – 1993 – A Sunday in Autumn [FLAC]10 – Autumn’s End.wav

Pre-gap length 0:00:06.40

Peak level 9.0 %
Extraction speed 11.6 X
Track quality 100.0 %
Test CRC D0BC4CF4
Copy CRC D0BC4CF4
Track not present in AccurateRip database
Copy OK

None of the tracks are present in the AccurateRip database

No errors occurred

End of status report

==== Log checksum F24E7F5B79C955480A56A53F4346F15A931D37A6ECB940BB23F9655A86870E7A ====

CUETools log
[CUETools log; Date: 03.02.2017 21:46:45; Version: 2.1.4]
[CTDB TOCID: 0UDKdyYVRJ72CSsN.fSL6Kjbp58-] found.
Track | CTDB Status
1 | (2/2) Accurately ripped
2 | (2/2) Accurately ripped
3 | (2/2) Accurately ripped
4 | (2/2) Accurately ripped
5 | (2/2) Accurately ripped
6 | (2/2) Accurately ripped
7 | (2/2) Accurately ripped
8 | (2/2) Accurately ripped
9 | (2/2) Accurately ripped
10 | (2/2) Accurately ripped
[AccurateRip ID: 001869a8-00c74983-810fd00a] found.
Track [ CRC | V2 ] Status
01 [a8ff16e1|ec356c16] (0+3/5) Accurately ripped
02 [30f0bca2|d71e1f0c] (0+3/5) Accurately ripped
03 [d54a7473|e35db882] (0+3/5) Accurately ripped
04 [9bd4901a|466a949a] (0+3/5) Accurately ripped
05 [d86e9813|a318ad8b] (0+3/5) Accurately ripped
06 [edd2f5a8|7b471b5f] (0+3/5) Accurately ripped
07 [83417f84|09a64346] (0+3/5) Accurately ripped
08 [1e6c72ad|9db21dc5] (0+3/5) Accurately ripped
09 [ff737280|af7c5608] (0+3/5) Accurately ripped
10 [d38b4903|b3ea95bf] (0+3/3) Accurately ripped
Offsetted by 26:
01 [39f4fa09] (0/5) No match (V2 was not tested)
02 [6e33a12c] (0/5) No match (V2 was not tested)
03 [5af14283] (0/5) No match (V2 was not tested)
04 [91e44c68] (0/5) No match (V2 was not tested)
05 [0a26f329] (0/5) No match (V2 was not tested)
06 [fa69ca58] (0/5) No match (V2 was not tested)
07 [63722090] (0/5) No match (V2 was not tested)
08 [1cc1fc9f] (0/5) No match (V2 was not tested)
09 [79a051c8] (0/5) No match (V2 was not tested)
10 [df1bbaa3] (0/3) No match (V2 was not tested)

Track Peak [ CRC32 ] [W/O NULL] [ LOG ]
– 97,7 [8D766DEA] [E8C91490]
01 85,2 [4CFE82AD] [C4F10788] CRC32
02 84,8 [7A0C2B3F] [68900233] CRC32
03 97,7 [F717001D] [9F4ADE74] CRC32
04 65,6 [F0E5B637] [B7005C7C] CRC32
05 82,1 [A1F7CCB8] [3539F575] CRC32
06 67,5 [98C7C13D] [29B47B34] CRC32
07 55,2 [A94E6F99] [0B2A728D] CRC32
08 57,2 [7D4BC6ED] [F3510AD5] CRC32
09 37,9 [90B2E9B8] [2B53CBFB] CRC32
10 9,0 [D0BC4CF4] [E5E10C6F] CRC32

Jon Mark - 2 Studio Albums (1994-1996)

Jon Mark – Asia Journey (1996)
EAC Rip | FLAC (tracks+.cue+log) – 232 MB | MP3 CBR 320 kbps (LAME 3.93) – 137 MB | Covers (9 MB) included
Genre: New Age | RAR 3% Rec. | Label: White Cloud (11009-2)

Tracklist:
01. Asia Dawn
02. Storm Over Bali
03. Kintamani
04. Bangkok
05. Nan Hai, South China Sea
06. Kowloon
07. Mist On The Peak
08. Children of Singapore
09. The Golden Temple
10. Singapore Nights

Total time: 54:23

EAC log
Exact Audio Copy V0.99 prebeta 4 from 23. January 2008

EAC extraction logfile from 16. April 2009, 18:26

Jon Mark / Asia Journey

Used drive : PLEXTOR CD-R PREMIUM2 Adapter: 1 ID: 1

Read mode : Secure
Utilize accurate stream : Yes
Defeat audio cache : Yes
Make use of C2 pointers : No

Read offset correction : 30
Overread into Lead-In and Lead-Out : Yes
Fill up missing offset samples with silence : Yes
Delete leading and trailing silent blocks : No
Null samples used in CRC calculations : Yes
Used interface : Installed external ASPI interface
Gap handling : Appended to previous track

Used output format : User Defined Encoder
Selected bitrate : 32 kBit/s
Quality : High
Add ID3 tag : No
Command line compressor : C:ProgrammiFLACflac.exe
Additional command line options : -8 -V -T "ARTIST=%a" -T "TITLE=%t" -T "ALBUM=%g" -T "DATE=%y" -T "TRACKNUMBER=%n" -T "GENRE=%m" -T "COMMENT=EAC FLAC -8" %s

TOC of the extracted CD

Track | Start | Length | Start sector | End sector
––––––––––––––––––––––––––––-
1 | 0:00.00 | 4:48.72 | 0 | 21671
2 | 4:48.72 | 6:39.00 | 21672 | 51596
3 | 11:27.72 | 5:20.30 | 51597 | 75626
4 | 16:48.27 | 5:14.15 | 75627 | 99191
5 | 22:02.42 | 4:00.33 | 99192 | 117224
6 | 26:03.00 | 5:02.27 | 117225 | 139901
7 | 31:05.27 | 5:04.40 | 139902 | 162741
8 | 36:09.67 | 5:09.65 | 162742 | 185981
9 | 41:19.57 | 7:39.10 | 185982 | 220416
10 | 48:58.67 | 5:24.50 | 220417 | 244766

Track 1

Filename D:My Rip1 – Asia Dawn.wav

Pre-gap length 0:00:02.00

Peak level 100.0 %
Track quality 100.0 %
Test CRC D02A74E8
Copy CRC D02A74E8
Track not present in AccurateRip database
Copy OK

Track 2

Filename D:My Rip2 – Storm Over Bali.wav

Pre-gap length 0:00:06.09

Peak level 100.0 %
Track quality 100.0 %
Test CRC 601A4160
Copy CRC 601A4160
Track not present in AccurateRip database
Copy OK

Track 3

Filename D:My Rip3 – Kintamani.wav

Pre-gap length 0:00:08.09

Peak level 63.4 %
Track quality 100.0 %
Test CRC 3A99D9DE
Copy CRC 3A99D9DE
Track not present in AccurateRip database
Copy OK

Track 4

Filename D:My Rip4 – Bangkok.wav

Pre-gap length 0:00:07.76

Peak level 66.9 %
Track quality 100.0 %
Test CRC 4AB610C4
Copy CRC 4AB610C4
Track not present in AccurateRip database
Copy OK

Track 5

Filename D:My Rip5 – Nan Hai, South China Sea.wav

Pre-gap length 0:00:06.33

Peak level 76.9 %
Track quality 100.0 %
Test CRC 5050C5D0
Copy CRC 5050C5D0
Track not present in AccurateRip database
Copy OK

Track 6

Filename D:My Rip6 – Kowloon.wav

Pre-gap length 0:00:07.53

Peak level 93.5 %
Track quality 100.0 %
Test CRC A3B02236
Copy CRC A3B02236
Track not present in AccurateRip database
Copy OK

Track 7

Filename D:My Rip7 – Mist On The Peak.wav

Pre-gap length 0:00:05.49

Peak level 78.2 %
Track quality 100.0 %
Test CRC 08B92B56
Copy CRC 08B92B56
Track not present in AccurateRip database
Copy OK

Track 8

Filename D:My Rip8 – Children of Singapore.wav

Pre-gap length 0:00:04.86

Peak level 86.6 %
Track quality 100.0 %
Test CRC 1D10E1D2
Copy CRC 1D10E1D2
Track not present in AccurateRip database
Copy OK

Track 9

Filename D:My Rip9 – The Golden Temple.wav

Pre-gap length 0:00:05.69

Peak level 57.7 %
Track quality 100.0 %
Test CRC 0BD68734
Copy CRC 0BD68734
Track not present in AccurateRip database
Copy OK

Track 10

Filename D:My Rip10 – Singapore Nights.wav

Pre-gap length 0:00:06.86

Peak level 67.0 %
Track quality 100.0 %
Test CRC 85BF6DC9
Copy CRC 85BF6DC9
Track not present in AccurateRip database
Copy OK

None of the tracks are present in the AccurateRip database

No errors occurred

End of status report

CUETools log
[CUETools log; Date: 03.02.2017 21:45:47; Version: 2.1.4]
[CTDB TOCID: oqAF7bWqrHTtEC4.U78i0m6SQhg-] disk not present in database.
[AccurateRip ID: 001420d3-00a10161-800cbf0a] found.
Track [ CRC | V2 ] Status
01 [e13dfa5e|97325dcb] (0+0/2) No match
02 [dec08ad5|0358c6da] (0+0/2) No match
03 [a83304dc|5d86ff5d] (0+0/2) No match
04 [85ecfb4f|38e5fdad] (0+0/2) No match
05 [3621e351|49280b72] (0+0/2) No match
06 [792b170b|b4e0c4d2] (0+0/2) No match
07 [54e308fb|ba791ecc] (0+0/2) No match
08 [198db208|4cf44c85] (0+0/2) No match
09 [a2e2c834|2a849c87] (0+0/2) No match
10 [211e1f62|a6aa3c7c] (0+0/2) No match
Offsetted by 43:
01 [84d90f1c] (0/2) No match (V2 was not tested)
02 [65d9f210] (0/2) No match (V2 was not tested)
03 [f3a5ad2b] (0/2) No match (V2 was not tested)
04 [f817ad20] (0/2) No match (V2 was not tested)
05 [7b94fa18] (0/2) No match (V2 was not tested)
06 [19e719c2] (0/2) No match (V2 was not tested)
07 [b6e3635b] (0/2) No match (V2 was not tested)
08 [afcc74f5] (0/2) No match (V2 was not tested)
09 [b7ffb27b] (0/2) No match (V2 was not tested)
10 [c6380d49] (0/2) No match (V2 was not tested)

Track Peak [ CRC32 ] [W/O NULL] [ LOG ]
– 100,0 [3C636910] [68C2DDFA]
01 100,0 [D02A74E8] [934DA25D] CRC32
02 100,0 [601A4160] [F2893B05] CRC32
03 63,4 [3A99D9DE] [E28DD342] CRC32
04 66,9 [4AB610C4] [D299EAF4] CRC32
05 76,9 [5050C5D0] [01C0B5F8] CRC32
06 93,5 [A3B02236] [D950B331] CRC32
07 78,2 [08B92B56] [F4D602FA] CRC32
08 86,6 [1D10E1D2] [03C37ECF] CRC32
09 57,7 [0BD68734] [71DB9897] CRC32
10 67,0 [85BF6DC9] [9DF21C39] CRC32

Thanks to Frankfist & whiteheat

Welcome to My Blog!

Jon Mark – 2 Studio Albums (1994-1996) Download, Warez, DDL, Free, Full Album, Torrent, Legal.

Download