Johnny Smith – The Johnny Smith Quartet (1955) {2016 Japan SHM-CD Jazz Masters Collection 1200 Series WPCR-29117} | ViralVideoPk

Daily Dose of Free Downloads

Johnny Smith – The Johnny Smith Quartet (1955) {2016 Japan SHM-CD Jazz Masters Collection 1200 Series WPCR-29117}

Download

Johnny Smith - The Johnny Smith Quartet (1955) {2016 Japan SHM-CD Jazz Masters Collection 1200 Series WPCR-29117}

Johnny Smith – The Johnny Smith Quartet (1955) {2016 Japan SHM-CD Jazz Masters Collection 1200 Series WPCR-29117}
EAC rip (secure mode) | FLAC (tracks)+CUE+LOG -> 143 Mb | MP3 @320 -> 84 Mb
Full Artwork @ 600 dpi (jpg) -> 61 Mb | 5% repair rar | 24bit remaster
© 1955, 2016 Roost / Parlophone / Warner Music Japan | WPCR-29117
Jazz / Cool / Guitar

SHM-CD reissue. Comes with a mini-description. Features new remastering if it comes from Parlophone. Sublime guitar work from the great Johnny Smith – a musician who was years ahead of his time, and influenced a generation with his clean, clear tone on the instrument! Smith’s in a perfect setting here – a Roost label quartet date that includes Bob Pancoast on piano, George Roumanis on bass, and Mousie Alexander on drums – a very understated group that really lets Johnny’s wonderful tones and colors stand strongly out front! Titles include "0500 Blues", "Old Girl", "Tired Blood", "Un Poco Loco", and "More Bass". Great CD version – one of the few proper issues of this material!

Johnny Smith - The Johnny Smith Quartet (1955) {2016 Japan SHM-CD Jazz Masters Collection 1200 Series WPCR-29117}

Personnel:
Johnny Smith – guitar
Bob Pancoast – piano
George Roumanis – bass
Mousey Alexander – drums

tracklist:
01 – Django
02 – Wait ‘Till You See Her
03 – 0500 Blues
04 – More Bass
05 – Un Poco Loco
06 – Easy Leaving
07 – Old Girl
08 – Little Girl Blue
09 – Tired Blood
10 – Spring Is Here

EAC log
Exact Audio Copy V1.1 from 23. June 2015

EAC extraction logfile from 16. December 2016, 18:27

Johnny Smith / The Johnny Smith Quartet

Used drive : TSSTcorpCDDVDW SE-208DB Adapter: 1 ID: 2

Read mode : Secure
Utilize accurate stream : Yes
Defeat audio cache : Yes
Make use of C2 pointers : No

Read offset correction : 6
Overread into Lead-In and Lead-Out : No
Fill up missing offset samples with silence : Yes
Delete leading and trailing silent blocks : No
Null samples used in CRC calculations : Yes
Used interface : Native Win32 interface for Win NT & 2000
Gap handling : Appended to previous track

Used output format : User Defined Encoder
Selected bitrate : 1024 kBit/s
Quality : High
Add ID3 tag : No
Command line compressor : C:Program Files (x86)FLAC Frontendtoolsflac.exe
Additional command line options : -8 -V -T "ARTIST=%artist%" -T "TITLE=%title%" -T "ALBUM=%albumtitle%" -T "DATE=%year%" -T "TRACKNUMBER=%tracknr%" -T "TOTALTRACKS=%numtracks%" -T "GENRE=%genre%" -T "ALBUMARTIST=%albumartist%" -T "ALBUM ARTIST=%albumartist%" -T "COMMENT=EAC Secure Mode, Test & Copy, AccurateRip, FLAC -8" %source%

TOC of the extracted CD

Track | Start | Length | Start sector | End sector
––––––––––––––––––––––––––––-
1 | 0:00.00 | 5:07.36 | 0 | 23060
2 | 5:07.36 | 2:18.59 | 23061 | 33469
3 | 7:26.20 | 3:49.71 | 33470 | 50715
4 | 11:16.16 | 2:32.43 | 50716 | 62158
5 | 13:48.59 | 4:32.26 | 62159 | 82584
6 | 18:21.10 | 3:19.74 | 82585 | 97583
7 | 21:41.09 | 3:56.33 | 97584 | 115316
8 | 25:37.42 | 2:50.71 | 115317 | 128137
9 | 28:28.38 | 4:22.25 | 128138 | 147812
10 | 32:50.63 | 2:46.25 | 147813 | 160287

Track 1

Filename D:_EACJohnny Smith – The Johnny Smith Quartet (1955) [FLAC] {Roost WPCR-29117 rel 2016}1 – Django.wav

Pre-gap length 0:00:02.00

Peak level 100.0 %
Extraction speed 1.2 X
Track quality 100.0 %
Test CRC 2AD692FC
Copy CRC 2AD692FC
Track not present in AccurateRip database
Copy OK

Track 2

Filename D:_EACJohnny Smith – The Johnny Smith Quartet (1955) [FLAC] {Roost WPCR-29117 rel 2016}2 – Wait ‘Till You See Her.wav

Peak level 98.6 %
Extraction speed 0.9 X
Track quality 99.9 %
Test CRC 61828BD0
Copy CRC 61828BD0
Track not present in AccurateRip database
Copy OK

Track 3

Filename D:_EACJohnny Smith – The Johnny Smith Quartet (1955) [FLAC] {Roost WPCR-29117 rel 2016}3 – 0500 Blues.wav

Peak level 100.0 %
Extraction speed 1.2 X
Track quality 100.0 %
Test CRC 782DDE99
Copy CRC 782DDE99
Track not present in AccurateRip database
Copy OK

Track 4

Filename D:_EACJohnny Smith – The Johnny Smith Quartet (1955) [FLAC] {Roost WPCR-29117 rel 2016}4 – More Bass.wav

Peak level 100.0 %
Extraction speed 1.2 X
Track quality 100.0 %
Test CRC 80FD86C5
Copy CRC 80FD86C5
Track not present in AccurateRip database
Copy OK

Track 5

Filename D:_EACJohnny Smith – The Johnny Smith Quartet (1955) [FLAC] {Roost WPCR-29117 rel 2016}5 – Un Poco Loco.wav

Peak level 100.0 %
Extraction speed 1.4 X
Track quality 100.0 %
Test CRC E98C7452
Copy CRC E98C7452
Track not present in AccurateRip database
Copy OK

Track 6

Filename D:_EACJohnny Smith – The Johnny Smith Quartet (1955) [FLAC] {Roost WPCR-29117 rel 2016}6 – Easy Leaving.wav

Peak level 87.6 %
Extraction speed 1.4 X
Track quality 100.0 %
Test CRC E1C0F33F
Copy CRC E1C0F33F
Track not present in AccurateRip database
Copy OK

Track 7

Filename D:_EACJohnny Smith – The Johnny Smith Quartet (1955) [FLAC] {Roost WPCR-29117 rel 2016}7 – Old Girl.wav

Peak level 100.0 %
Extraction speed 1.5 X
Track quality 100.0 %
Test CRC 5E2777FB
Copy CRC 5E2777FB
Track not present in AccurateRip database
Copy OK

Track 8

Filename D:_EACJohnny Smith – The Johnny Smith Quartet (1955) [FLAC] {Roost WPCR-29117 rel 2016}8 – Little Girl Blue.wav

Peak level 91.4 %
Extraction speed 1.2 X
Track quality 99.9 %
Test CRC 78081D83
Copy CRC 78081D83
Track not present in AccurateRip database
Copy OK

Track 9

Filename D:_EACJohnny Smith – The Johnny Smith Quartet (1955) [FLAC] {Roost WPCR-29117 rel 2016}9 – Tired Blood.wav

Peak level 99.2 %
Extraction speed 1.6 X
Track quality 100.0 %
Test CRC 0888312A
Copy CRC 0888312A
Track not present in AccurateRip database
Copy OK

Track 10

Filename D:_EACJohnny Smith – The Johnny Smith Quartet (1955) [FLAC] {Roost WPCR-29117 rel 2016}10 – Spring Is Here.wav

Peak level 100.0 %
Extraction speed 1.2 X
Track quality 99.9 %
Test CRC C968BADB
Copy CRC C968BADB
Track not present in AccurateRip database
Copy OK

None of the tracks are present in the AccurateRip database

No errors occurred

End of status report

==== Log checksum 6CD167E20951738B3A38B3FB77E62F82380C92F7F5BA11F625BB654754BFFADE ====

Johnny Smith - The Johnny Smith Quartet (1955) {2016 Japan SHM-CD Jazz Masters Collection 1200 Series WPCR-29117}

Johnny Smith - The Johnny Smith Quartet (1955) {2016 Japan SHM-CD Jazz Masters Collection 1200 Series WPCR-29117}

Artwork -> thanks to Mal…

More 2016 Japan SHM-CD Jazz Masters Collection 1200 Series:
Johnny Smith – The New Johnny Smith Quartet (1956) {2016 Japan SHM-CD Jazz Masters Collection 1200 Series WPCR-29025}
Johnny Smith Trio – Easy Listening (1958) {2016 Japan SHM-CD Jazz Masters Collection 1200 Series WPCR-29084}

NEXT -> more 2016 Japan SHM-CD Jazz Masters Collection 1200 Series on the way…

Johnny Smith – The Johnny Smith Quartet (1955) {2016 Japan SHM-CD Jazz Masters Collection 1200 Series WPCR-29117} Download, Warez, DDL, Free, Full Album, Torrent, Legal.

Download


  • Recent Posts

  • Recent Tags