Johnny Clegg & Savuka – Cruel, Crazy, Beautiful World (1989)

Download
Johnny Clegg & Savuka - Cruel, Crazy, Beautiful World (1989)

Johnny Clegg & Savuka – Cruel, Crazy, Beautiful World (1989)
EAC | FLAC | Image (Cue&Log) ~ 360 Mb (incl 5%) | Mp3 (CBR320) ~ 119 Mb (incl 5%) | Scans ~ 186 Mb
World Fusion, World Beat, Afro Pop, Mbaqanga, Pop/Rock | Label: EMI | # 793446-2 | Time: 00:49:31

When South Africa was still suffering under the apartheid system in the 1980s, Johnny Clegg & Savuka was the last thing apartheid supporters wanted in a pop group. Their lyrics were often vehemently anti-apartheid, and apartheid supporters hated the fact that a half-black, half-white outfit out of South Africa was integrated and proud of it. Released in the U.S. at the end of the 1980s, Cruel, Crazy, Beautiful World is among the many rewarding albums the band has recorded. Sting and the Police are a definite influence on Clegg & Savuka, who have absorbed everything from various African pop styles to Western pop, funk, rock, and reggae. The lyrics are consistently substantial and frequently sociopolitical – "Bombs Away" addresses the violence of the apartheid regime, while "Warsaw 1943" reflects on the horrors Eastern Europe experienced at the hands of both communists and fascists during World War II. Clegg and company enjoyed a passionate following at the time, and this fine CD proves that it was well deserved.

Review by Alex Henderson, Allmusic.com

Johnny Clegg & Savuka - Cruel, Crazy, Beautiful World (1989)

Johnny Clegg at Allmusic
Johnny Clegg Website
Johnny Clegg at Wiki

Tracklist:

01. One (Hu)’Man One Vote (04:42)
02. Cruel, Crazy, Beautiful World (04:24)
03. Jericho (04:15)
04. Dela (04:14)
05. Moliva (04:29)
06. It’s An Illusion (04:40)
07. Bombs Away (04:35)
08. Woman Be My Country (04:56)
09. Rolling Ocean (04:09)
10. Warsaw 1943 (04:50)
11. Vezandlebe (04:03)

EAC log
Exact Audio Copy V0.99 prebeta 5 from 4. May 2009

Отчёт EAC об извлечении, выполненном 22. июня 2011, 23:57

Johnny Clegg & Savuka / Cruel, Crazy, Beautiful World

Дисковод: PIONEER DVD-RW DVR-215D Adapter: 1 ID: 1

Режим чтения : Достоверность
Использование точного потока : Да
Отключение кэша аудио : Да
Использование указателей C2 : Нет

Коррекция смещения при чтении : 48
Способность читать области Lead-in и Lead-out : Нет
Заполнение пропущенных сэмплов тишиной : Да
Удаление блоков с тишиной в начале и конце : Нет
При вычислениях CRC использовались нулевые сэмплы : Да
Интерфейс : Встроенный Win32-интерфейс для Win NT/2000

Выходной формат : Пользовательский кодировщик
Выбранный битрейт : 1024 kBit/s
Качество : Высокий
Добавление ID3-тэга : Нет
Утилита сжатия : H:Program FilesExact Audio CopyFLACFLAC.EXE
Дополнительные параметры : -6 -V -T "ARTIST=%a" -T "TITLE=%t" -T "ALBUM=%g" -T "DATE=%y" -T "TRACKNUMBER=%n" -T "GENRE=%m" -T "COMMENT=%e" %s -o %d

TOC извлечённого CD

Трек | Старт | Длительность | Начальный сектор | Конечный сектор
––––––––––––––––––––––––––––––––––-
1 | 0:00.33 | 4:44.42 | 33 | 21374
2 | 4:45.00 | 4:24.70 | 21375 | 41244
3 | 9:09.70 | 4:17.33 | 41245 | 60552
4 | 13:27.28 | 4:14.50 | 60553 | 79652
5 | 17:42.03 | 4:30.50 | 79653 | 99952
6 | 22:12.53 | 4:40.70 | 99953 | 121022
7 | 26:53.48 | 4:36.10 | 121023 | 141732
8 | 31:29.58 | 4:57.62 | 141733 | 164069
9 | 36:27.45 | 4:09.28 | 164070 | 182772
10 | 40:36.73 | 4:51.02 | 182773 | 204599
11 | 45:28.00 | 4:03.68 | 204600 | 222892

Характеристики диапазона извлечения и сообщения об ошибках

Выбранный диапазон

Имя файла L:Audio LosslessJohnny Clegg & Savuka. 1989 Cruel Crazy Beautiful WorldJohnny Clegg & Savuka – Cruel, Crazy, Beautiful World.wav

Пиковый уровень 100.0 %
Качество диапазона 100.0 %
CRC теста 55CDDE71
CRC копии 55CDDE71
Копирование… OK

Ошибок не произошло

AccurateRip: сводка

Трек 1 точное извлечение (доверие 3) [77ABAAFA]
Трек 2 точное извлечение (доверие 3) [49107FFC]
Трек 3 точное извлечение (доверие 3) [5CC21BEF]
Трек 4 точное извлечение (доверие 3) [B3A5122C]
Трек 5 точное извлечение (доверие 3) [8AB02B23]
Трек 6 точное извлечение (доверие 3) [9ACBF57B]
Трек 7 точное извлечение (доверие 3) [5BFC0A52]
Трек 8 точное извлечение (доверие 3) [E6611F46]
Трек 9 точное извлечение (доверие 3) [DB8C5D7B]
Трек 10 точное извлечение (доверие 3) [B2A72239]
Трек 11 точное извлечение (доверие 3) [6BB4698C]

Все треки извлечены точно

Конец отчёта

DR log
foobar2000 1.2 / Dynamic Range Meter 1.1.1
log date: 2017-02-06 22:28:32

––––––––––––––––––––––––––––––––––––––––
Analyzed: Johnny Clegg & Savuka / Cruel, Crazy, Beautiful World
––––––––––––––––––––––––––––––––––––––––

DR Peak RMS Duration Track
––––––––––––––––––––––––––––––––––––––––
DR11 -0.07 dB -13.01 dB 4:45 01-One (Hu)’Man One Vote
DR10 0.00 dB -12.10 dB 4:25 02-Cruel, Crazy, Beautiful World
DR10 0.00 dB -11.43 dB 4:17 03-Jericho
DR10 0.00 dB -12.68 dB 4:15 04-Dela
DR11 -0.32 dB -12.77 dB 4:31 05-Moliva
DR10 -0.13 dB -12.02 dB 4:41 06-It’s An Illusion
DR11 0.00 dB -12.75 dB 4:36 07-Bombs Away
DR11 0.00 dB -13.45 dB 4:58 08-Woman Be My Country
DR10 -0.09 dB -11.98 dB 4:09 09-Rolling Ocean
DR11 -0.30 dB -13.54 dB 4:51 10-Warsaw 1943
DR12 -0.36 dB -13.29 dB 4:04 11-Vezandlebe
––––––––––––––––––––––––––––––––––––––––

Number of tracks: 11
Official DR value: DR11

Samplerate: 44100 Hz
Channels: 2
Bits per sample: 16
Bitrate: 968 kbps
Codec: FLAC
================================================================================

Johnny Clegg & Savuka - Cruel, Crazy, Beautiful World (1989)

Johnny Clegg & Savuka - Cruel, Crazy, Beautiful World (1989)

All thanks to original releaser – Mawrix

More interesting music in My Blog

Johnny Clegg & Savuka – Cruel, Crazy, Beautiful World (1989) Download, Warez, DDL, Free, Full Album, Torrent, Legal.

Download