John Zorn & The Spike Orchestra – Cerberus: Book Of Angels, Volume 26 (2015) {Tzadik TZ 8338} | ViralVideoPk

Daily Dose of Free Downloads

John Zorn & The Spike Orchestra – Cerberus: Book Of Angels, Volume 26 (2015) {Tzadik TZ 8338}

Download

John Zorn & The Spike Orchestra - Cerberus: Book Of Angels, Volume 26 (2015) {Tzadik TZ 8338}

John Zorn & The Spike Orchestra – Cerberus: Book Of Angels, Volume 26 (2015) {Tzadik TZ 8338}
EAC rip (secure mode) | FLAC (tracks)+CUE+LOG -> 400 Mb | MP3 @320 -> 135 Mb | Artwork | 5% repair rar
© 2015 Tzadik | TZ 8338 | Tzadik Archival Series
Jazz / Modern Big Band / Klezmer / Modern Jazz / Avant-Garde Jazz

This is the Big Band Masada project you’ve been waiting for. Led by composers Sam Eastmond and Nikki Franklin, The SPIKE Orchestra is a large ensemble that draws on a wide range of influences including Duke Ellington, Frank Zappa, Carl Stalling, Zorn and more. Melding jazz, rock, klezmer, cartoon and the avant-garde into a compelling and cohesive vision, this new Angels installment is one of the most imaginative and manic masterpieces in the whole series. An outrageous and explosive swinger that will thrill even the most hardened skeptic. Essential.

John Zorn & The Spike Orchestra - Cerberus: Book Of Angels, Volume 26 (2015) {Tzadik TZ 8338}

AAJ INFO

Personnel:
Paul Booth: Tenor Sax, Clarinet
Erica Clarke: Baritone Sax, Bass Clarinet
Stewart Curtis: Tenor Sax, Clarinet
Sam Eastmond: Solo Trumpet
Nikki Franklin: Voice
Moss Freed: Guitar
Ben Greenslade-Stanton: Trombone
Mike Guy: Accordion
George Hogg: Trumpet, Flugelhorn
Noel Langley: Trumpet, Flugelhorn
Sam Leak: Piano, Keyboards
Chris Nickolls: Drums
Dave Powell: Tuba
Ashley Slater: Trombone
Karen Straw: Trumpet, Flugelhorn
Mike Wilkins: Alto Sax, Clarinet
Otto Willberg: Bass
Vasilis Xenopoulos: Alto Sax, Flute

All music composed by John Zorn
Executive producer – John Zorn

John Zorn & The Spike Orchestra - Cerberus: Book Of Angels, Volume 26 (2015) {Tzadik TZ 8338}

tracklist:
01. Gehegial
02. Hakha
03. Hananiel
04. Lahal
05. Armasa
06. Thronus
07. Shinial
08. Donel
09. Raguel
10. Pahadron

EAC log
Exact Audio Copy V1.1 from 23. June 2015

EAC extraction logfile from 6. January 2017, 19:01

John Zorn & The Spike Orchestra / Cerberus: Book of Angels, Vol. 26

Used drive : TSSTcorpCDDVDW SE-208DB Adapter: 1 ID: 2

Read mode : Secure
Utilize accurate stream : Yes
Defeat audio cache : Yes
Make use of C2 pointers : No

Read offset correction : 6
Overread into Lead-In and Lead-Out : No
Fill up missing offset samples with silence : Yes
Delete leading and trailing silent blocks : No
Null samples used in CRC calculations : Yes
Used interface : Native Win32 interface for Win NT & 2000
Gap handling : Appended to previous track

Used output format : User Defined Encoder
Selected bitrate : 1024 kBit/s
Quality : High
Add ID3 tag : No
Command line compressor : C:Program Files (x86)FLAC Frontendtoolsflac.exe
Additional command line options : -8 -V -T "ARTIST=%artist%" -T "TITLE=%title%" -T "ALBUM=%albumtitle%" -T "DATE=%year%" -T "TRACKNUMBER=%tracknr%" -T "TOTALTRACKS=%numtracks%" -T "GENRE=%genre%" -T "ALBUMARTIST=%albumartist%" -T "ALBUM ARTIST=%albumartist%" -T "COMMENT=EAC Secure Mode, Test & Copy, AccurateRip, FLAC -8" %source%

TOC of the extracted CD

Track | Start | Length | Start sector | End sector
––––––––––––––––––––––––––––-
1 | 0:00.00 | 4:59.67 | 0 | 22491
2 | 4:59.67 | 5:09.03 | 22492 | 45669
3 | 10:08.70 | 5:09.12 | 45670 | 68856
4 | 15:18.07 | 5:19.60 | 68857 | 92841
5 | 20:37.67 | 7:35.05 | 92842 | 126971
6 | 28:12.72 | 6:47.11 | 126972 | 157507
7 | 35:00.08 | 4:42.12 | 157508 | 178669
8 | 39:42.20 | 5:48.28 | 178670 | 204797
9 | 45:30.48 | 4:45.60 | 204798 | 226232
10 | 50:16.33 | 6:19.15 | 226233 | 254672

Track 1

Filename D:_EACThe Spike Orchestra – Cerberus – Book Of Angels, Vol. 26 (2015) [FLAC]1 – Gehegial.wav

Pre-gap length 0:00:02.00

Peak level 99.9 %
Extraction speed 2.9 X
Track quality 100.0 %
Test CRC 7477B127
Copy CRC 7477B127
Track not present in AccurateRip database
Copy OK

Track 2

Filename D:_EACThe Spike Orchestra – Cerberus – Book Of Angels, Vol. 26 (2015) [FLAC]2 – Hakha.wav

Peak level 99.5 %
Extraction speed 3.4 X
Track quality 100.0 %
Test CRC C8C0A4A5
Copy CRC C8C0A4A5
Track not present in AccurateRip database
Copy OK

Track 3

Filename D:_EACThe Spike Orchestra – Cerberus – Book Of Angels, Vol. 26 (2015) [FLAC]3 – Hananiel.wav

Peak level 99.5 %
Extraction speed 3.7 X
Track quality 100.0 %
Test CRC E9AE3C63
Copy CRC E9AE3C63
Track not present in AccurateRip database
Copy OK

Track 4

Filename D:_EACThe Spike Orchestra – Cerberus – Book Of Angels, Vol. 26 (2015) [FLAC]4 – Lahal.wav

Peak level 99.5 %
Extraction speed 4.0 X
Track quality 100.0 %
Test CRC F12879DE
Copy CRC F12879DE
Track not present in AccurateRip database
Copy OK

Track 5

Filename D:_EACThe Spike Orchestra – Cerberus – Book Of Angels, Vol. 26 (2015) [FLAC]5 – Armasa.wav

Peak level 99.5 %
Extraction speed 4.5 X
Track quality 100.0 %
Test CRC 5010CF91
Copy CRC 5010CF91
Track not present in AccurateRip database
Copy OK

Track 6

Filename D:_EACThe Spike Orchestra – Cerberus – Book Of Angels, Vol. 26 (2015) [FLAC]6 – Thronus.wav

Peak level 99.5 %
Extraction speed 4.7 X
Track quality 100.0 %
Test CRC 71F06B59
Copy CRC 71F06B59
Track not present in AccurateRip database
Copy OK

Track 7

Filename D:_EACThe Spike Orchestra – Cerberus – Book Of Angels, Vol. 26 (2015) [FLAC]7 – Shinial.wav

Peak level 99.5 %
Extraction speed 4.0 X
Track quality 99.9 %
Test CRC A9834D84
Copy CRC A9834D84
Track not present in AccurateRip database
Copy OK

Track 8

Filename D:_EACThe Spike Orchestra – Cerberus – Book Of Angels, Vol. 26 (2015) [FLAC]8 – Donel.wav

Peak level 99.7 %
Extraction speed 5.2 X
Track quality 100.0 %
Test CRC B5A143B5
Copy CRC B5A143B5
Track not present in AccurateRip database
Copy OK

Track 9

Filename D:_EACThe Spike Orchestra – Cerberus – Book Of Angels, Vol. 26 (2015) [FLAC]9 – Raguel.wav

Peak level 99.5 %
Extraction speed 5.3 X
Track quality 100.0 %
Test CRC 0D73CC54
Copy CRC 0D73CC54
Track not present in AccurateRip database
Copy OK

Track 10

Filename D:_EACThe Spike Orchestra – Cerberus – Book Of Angels, Vol. 26 (2015) [FLAC]10 – Pahadron.wav

Peak level 99.7 %
Extraction speed 5.6 X
Track quality 100.0 %
Test CRC AFD6658A
Copy CRC AFD6658A
Track not present in AccurateRip database
Copy OK

None of the tracks are present in the AccurateRip database

No errors occurred

End of status report

==== Log checksum 4DFE282D5A0F94D7B3AD796B3AF1CDC67901DDF07FDB3CD5B613201574B22B47 ====

John Zorn & The Spike Orchestra - Cerberus: Book Of Angels, Volume 26 (2015) {Tzadik TZ 8338}

John Zorn & The Spike Orchestra - Cerberus: Book Of Angels, Volume 26 (2015) {Tzadik TZ 8338}

More Tzadik…

See more Tzadik Book of Angels Series:
John Zorn & Jamie Saft Trio – Astaroth: Book Of Angels Volume 1 (2005) {Tzadik TZ 7348}
John Zorn & Masada String Trio – Azazel: Book of Angels, Volume 2 (2005) {Tzadik TZ 7351}
John Zorn – Malphas: Book Of Angels, Volume 3 (2006) {Tzadik TZ 7354} (Mark Feldman and Sylvie Courvoisier)
John Zorn – Koby Israelite – Orobas: Book Of Angels, Volume 4 (2006) {Tzadik TZ 7356}
John Zorn & The Cracow Klezmer Band – Balan: Book of Angels, Volume 5 (2006) {Tzadik TZ 7358}

Marc Ribot & John Zorn – Asmodeus: Book Of Angels, Volume 7 (2007) {Tzadik TZ 7362}
John Zorn – Lucifer: Book Of Angels Volume 10 – Bar Kokhba (2008) {Tzadik TZ 7367}
Medeski, Martin, and Wood (John Zorn) – Zaebos: Book of Angels Vol. 11 (2008) {Tzadik}
John Zorn & Mycale – Mycale: Book Of Angels Volume 13 (2010) {Tzadik}
Zion80 – Adramelech: The Book Of Angels vol. 22 (2014) {Tzadik Archival Series, TZ 8319}

Klezmerson & John Zorn – Amon: Book Of Angels Volume 24 (2015) {Tzadik}
John Zorn & Mycale – Gomory – Book Of Angels Volume 25 (2015) {Tzadik TZ 8332}
John Zorn – Flaga: Book of Angels Volume 27 (2016) {Tzadik TZ 8341}
John Zorn & Nova Express Quintet – Andras: Book of Angels, Volume 28 (2016) {Tzadik TZ 8343}
John Zorn & AutorYno – Flauros: Book of Angels Volume 29 (2016) {Tzadik TZ 8346}

NEXT -> More Tzadik & Book of Angels Series on the way…

===

John Zorn & The Spike Orchestra – Cerberus: Book Of Angels, Volume 26 (2015) {Tzadik TZ 8338} Download, Warez, DDL, Free, Full Album, Torrent, Legal.

Download


  • Recent Posts

  • Recent Tags