John Zorn – The Classic Guide To Strategy – Volume 4 (2016) {Tzadik TZ 8349}

Download
John Zorn - The Classic Guide To Strategy - Volume 4 (2016) {Tzadik TZ 8349}

John Zorn – The Classic Guide To Strategy, Volume 4 (2016) {Tzadik TZ 8349}
EAC rip (secure mode) | FLAC (tracks)+CUE+LOG -> 304 Mb | MP3 @320 -> 108 Mb
Full Artwork @ 600 dpi (png) -> 181 Mb | 5% repair rar
© 2016 Tzadik | TZ 8349 | Tzadik Archival Series
Jazz / Avant-Garde / Free Improvisation / Real-Time Improvisation / Alto Saxophone

After over 40 years there is still no one who plays the sax quite like John Zorn. Using the instrument as sound maker, he commands a saxophone language of unmatched versatility. Collected under the enigmatic title of “The Classic Guide to Strategy,” five volumes were planned—“Volume 1” (1983), “Volume 2’ (1986), “Volume 3’ (2003) and now the penultimate “Volume 4” is finally made available on Tzadik. Filled with wit, drama, playfulness and intensity, the composer’s legendary virtuosity and powerful improvisational logic is on full display in this astonishing release recorded at EMPAC in early 2013. You have to hear it to believe it!

Classic solo Zorn. No one plays the alto quite the way he does.

John Zorn - The Classic Guide To Strategy - Volume 4 (2016) {Tzadik TZ 8349}

Personnel:
John Zorn – alto saxophone

John Zorn - The Classic Guide To Strategy - Volume 4 (2016) {Tzadik TZ 8349}

tracklist:
01 – The Wind Book 1
02 – The Wind Book 2
03 – The Wind Book 3
04 – The Wind Book 4
05 – The Wind Book 5

EAC log
Exact Audio Copy V1.1 from 23. June 2015

EAC extraction logfile from 12. February 2017, 17:25

John Zorn / The Classic Guide To Strategy – Volume 4

Used drive : TSSTcorpCDDVDW SE-208DB Adapter: 1 ID: 1

Read mode : Secure
Utilize accurate stream : Yes
Defeat audio cache : Yes
Make use of C2 pointers : No

Read offset correction : 6
Overread into Lead-In and Lead-Out : No
Fill up missing offset samples with silence : Yes
Delete leading and trailing silent blocks : No
Null samples used in CRC calculations : Yes
Used interface : Native Win32 interface for Win NT & 2000
Gap handling : Appended to previous track

Used output format : User Defined Encoder
Selected bitrate : 1024 kBit/s
Quality : High
Add ID3 tag : No
Command line compressor : C:Program Files (x86)FLAC Frontendtoolsflac.exe
Additional command line options : -8 -V -T "ARTIST=%artist%" -T "TITLE=%title%" -T "ALBUM=%albumtitle%" -T "DATE=%year%" -T "TRACKNUMBER=%tracknr%" -T "TOTALTRACKS=%numtracks%" -T "GENRE=%genre%" -T "ALBUMARTIST=%albumartist%" -T "ALBUM ARTIST=%albumartist%" -T "COMMENT=EAC Secure Mode, Test & Copy, AccurateRip, FLAC -8" %source%

TOC of the extracted CD

Track | Start | Length | Start sector | End sector
––––––––––––––––––––––––––––-
1 | 0:00.00 | 11:45.58 | 0 | 52932
2 | 11:45.58 | 14:39.68 | 52933 | 118925
3 | 26:25.51 | 4:47.34 | 118926 | 140484
4 | 31:13.10 | 7:09.73 | 140485 | 172732
5 | 38:23.08 | 7:10.46 | 172733 | 205028

Track 1

Filename D:_EACJohn Zorn – The Classic Guide To Strategy – Volume 4 (2016) [FLAC] {Tzadik TZ 8349}1 – The Wind Book 1.wav

Pre-gap length 0:00:02.00

Peak level 97.9 %
Extraction speed 1.2 X
Track quality 100.0 %
Test CRC 1BF05CC8
Copy CRC 1BF05CC8
Track not present in AccurateRip database
Copy OK

Track 2

Filename D:_EACJohn Zorn – The Classic Guide To Strategy – Volume 4 (2016) [FLAC] {Tzadik TZ 8349}2 – The Wind Book 2.wav

Peak level 97.7 %
Extraction speed 1.5 X
Track quality 100.0 %
Test CRC B2C40257
Copy CRC B2C40257
Track not present in AccurateRip database
Copy OK

Track 3

Filename D:_EACJohn Zorn – The Classic Guide To Strategy – Volume 4 (2016) [FLAC] {Tzadik TZ 8349}3 – The Wind Book 3.wav

Peak level 97.3 %
Extraction speed 1.5 X
Track quality 100.0 %
Test CRC 900C580A
Copy CRC 900C580A
Track not present in AccurateRip database
Copy OK

Track 4

Filename D:_EACJohn Zorn – The Classic Guide To Strategy – Volume 4 (2016) [FLAC] {Tzadik TZ 8349}4 – The Wind Book 4.wav

Peak level 79.8 %
Extraction speed 1.6 X
Track quality 100.0 %
Test CRC ABB74F7B
Copy CRC ABB74F7B
Track not present in AccurateRip database
Copy OK

Track 5

Filename D:_EACJohn Zorn – The Classic Guide To Strategy – Volume 4 (2016) [FLAC] {Tzadik TZ 8349}5 – The Wind Book 5.wav

Peak level 97.6 %
Extraction speed 1.6 X
Track quality 99.9 %
Test CRC DA853707
Copy CRC DA853707
Track not present in AccurateRip database
Copy OK

None of the tracks are present in the AccurateRip database

No errors occurred

End of status report

–– CUETools DB Plugin V2.1.6

[CTDB TOCID: DI1u9Ilsd9fMpnozFcWrJX4qfEE-] found
Submit result: DI1u9Ilsd9fMpnozFcWrJX4qfEE- has been confirmed
Track | CTDB Status
1 | (1/1) Accurately ripped
2 | (1/1) Accurately ripped
3 | (1/1) Accurately ripped
4 | (1/1) Accurately ripped
5 | (1/1) Accurately ripped

==== Log checksum 459198BF2A3BA0FA751984E43CDEDE5EFCEA71D7E0AD987B7CC8DFB33228FA01 ====

John Zorn - The Classic Guide To Strategy - Volume 4 (2016) {Tzadik TZ 8349}

John Zorn - The Classic Guide To Strategy - Volume 4 (2016) {Tzadik TZ 8349}

More Tzadik…

NEXT -> More Tzadik on the way…

===

John Zorn – The Classic Guide To Strategy – Volume 4 (2016) {Tzadik TZ 8349} Download, Warez, DDL, Free, Full Album, Torrent, Legal.

Tags:

  • John Zorn - The Classic Guide to Strategy Vol 4 (2016)
Download