John Zorn and Garth Knox & The Saltarello Trio – Leonard: Book of Angels, Vol. 30 (2017) {Tzadik TZ 8350}

Download
John Zorn and Garth Knox & The Saltarello Trio - Leonard: Book of Angels, Vol. 30 (2017) {Tzadik TZ 8350}

John Zorn and Garth Knox & The Saltarello Trio – Leonard: Book of Angels, Vol. 30 (2017) {Tzadik TZ 8350}
EAC rip (secure mode) | FLAC (tracks)+CUE+LOG -> 245 Mb | MP3 @320 -> 113 Mb | Artwork | 5% repair rar
© 2017 Tzadik | TZ 8350 | Tzadik Archival Series
Jazz / Classical / Klezmer / Medieval-tinged Classical

Drawing on his vast experience as viola player of the Arditti Quartet, Ensemble InterContemporain and his close collaboration with many of the today’s leading composers, Garth Knox has become a master of many styles. Presenting a completely new interpretation of the “Book of Angels”, the beautiful medieval-tinged arrangements produced by Garth Knox and his group capture the folk song quality of Zorn’s compositions with a lovely and intimate ensemble of strings and percussion. Playing viola and viola d’amore, Garth presents these enigmatic compositions in a new and refreshing light. This penultimate installment of the “Book of Angels” is also one of the most charmingly beautiful.

Personnel:
Garth Knox: Viola D’amore, Viola
Sylvain Lemêtre: Percussion
Julia Robert: Viola D’amore, Viola
Agnès Vesterman: Cello

All music composed by John Zorn

tracklist:
1. Amhiel
2. Kmiel
3. Cerviel
4. Hatach
5. Katmial
6. Yomyael
7. Udriel
8. Azariel
9. Tazbun

EAC log
Exact Audio Copy V1.3 from 2. September 2016

EAC extraction logfile from 5. February 2017, 18:26

Garth Knox & The Saltarello Trio / Leonard: The Book of Angels, Vol. 30

Used drive : HL-DT-STBDDVDRW GBC-H20L Adapter: 1 ID: 0

Read mode : Secure
Utilize accurate stream : Yes
Defeat audio cache : Yes
Make use of C2 pointers : No

Read offset correction : 667
Overread into Lead-In and Lead-Out : No
Fill up missing offset samples with silence : Yes
Delete leading and trailing silent blocks : No
Null samples used in CRC calculations : Yes
Used interface : Native Win32 interface for Win NT & 2000
Gap handling : Appended to previous track

Used output format : User Defined Encoder
Selected bitrate : 768 kBit/s
Quality : High
Add ID3 tag : No
Command line compressor : C:Program Files (x86)Exact Audio CopyFLACFLAC.EXE
Additional command line options : -8 -V -T "ARTIST=%artist%" -T "TITLE=%title%" -T "ALBUM=%albumtitle%" -T "DATE=%year%" -T "TRACKNUMBER=%tracknr%" -T "GENRE=%genre%" -T "COMMENT=%comment%" -T "BAND=%albuminterpret%" -T "ALBUMARTIST=%albuminterpret%" -T "COMPOSER=%composer%" %haslyrics%–tag-from-file=LYRICS="%lyricsfile%"%haslyrics% -T "DISCNUMBER=%cdnumber%" -T "TOTALDISCS=%totalcds%" -T "TOTALTRACKS=%numtracks%" %hascover%–picture="%coverfile%"%hascover% %source% -o %dest%

TOC of the extracted CD

Track | Start | Length | Start sector | End sector
––––––––––––––––––––––––––––-
1 | 0:00.00 | 5:08.74 | 0 | 23173
2 | 5:08.74 | 4:15.25 | 23174 | 42323
3 | 9:24.24 | 5:29.66 | 42324 | 67064
4 | 14:54.15 | 6:20.65 | 67065 | 95629
5 | 21:15.05 | 4:15.18 | 95630 | 114772
6 | 25:30.23 | 4:20.18 | 114773 | 134290
7 | 29:50.41 | 5:42.08 | 134291 | 159948
8 | 35:32.49 | 6:04.14 | 159949 | 187262
9 | 41:36.63 | 6:36.50 | 187263 | 217012

Track 1

Filename E:ripsLeonard The Book of Angels Vol 301 Amhiel.wav

Pre-gap length 0:00:02.00

Peak level 100.0 %
Extraction speed 4.7 X
Track quality 100.0 %
Test CRC 1038671E
Copy CRC 1038671E
Track not present in AccurateRip database
Copy OK

Track 2

Filename E:ripsLeonard The Book of Angels Vol 302 Kmiel.wav

Peak level 100.0 %
Extraction speed 5.3 X
Track quality 100.0 %
Test CRC 848A822A
Copy CRC 848A822A
Track not present in AccurateRip database
Copy OK

Track 3

Filename E:ripsLeonard The Book of Angels Vol 303 Cerviel.wav

Peak level 100.0 %
Extraction speed 6.0 X
Track quality 100.0 %
Test CRC 3E3E10DD
Copy CRC 3E3E10DD
Track not present in AccurateRip database
Copy OK

Track 4

Filename E:ripsLeonard The Book of Angels Vol 304 Hatach.wav

Peak level 100.0 %
Extraction speed 6.8 X
Track quality 100.0 %
Test CRC B299CBE4
Copy CRC B299CBE4
Track not present in AccurateRip database
Copy OK

Track 5

Filename E:ripsLeonard The Book of Angels Vol 305 Katmial.wav

Peak level 84.3 %
Extraction speed 6.8 X
Track quality 100.0 %
Test CRC D36E6C03
Copy CRC D36E6C03
Track not present in AccurateRip database
Copy OK

Track 6

Filename E:ripsLeonard The Book of Angels Vol 306 Yomyael.wav

Peak level 85.4 %
Extraction speed 6.4 X
Track quality 99.9 %
Test CRC 3E4FB92E
Copy CRC 3E4FB92E
Track not present in AccurateRip database
Copy OK

Track 7

Filename E:ripsLeonard The Book of Angels Vol 307 Udriel.wav

Peak level 100.0 %
Extraction speed 8.0 X
Track quality 100.0 %
Test CRC B6A74C18
Copy CRC B6A74C18
Track not present in AccurateRip database
Copy OK

Track 8

Filename E:ripsLeonard The Book of Angels Vol 308 Azariel.wav

Peak level 100.0 %
Extraction speed 7.7 X
Track quality 99.9 %
Test CRC 9007825C
Copy CRC 9007825C
Track not present in AccurateRip database
Copy OK

Track 9

Filename E:ripsLeonard The Book of Angels Vol 309 Tazbun.wav

Peak level 100.0 %
Extraction speed 9.1 X
Track quality 100.0 %
Test CRC 6641245A
Copy CRC 6641245A
Track not present in AccurateRip database
Copy OK

None of the tracks are present in the AccurateRip database

No errors occurred

End of status report

==== Log checksum E2062CA59DB5640B7E6BFA33399A71FDCB8ECA6B166A1BF95B3C67E9A411DA4F ====

John Zorn and Garth Knox & The Saltarello Trio - Leonard: Book of Angels, Vol. 30 (2017) {Tzadik TZ 8350}

All thanks goes to the original releaser!

More Tzadik…

See more Tzadik Book of Angels Series:
John Zorn & Jamie Saft Trio – Astaroth: Book Of Angels Volume 1 (2005) {Tzadik TZ 7348}
John Zorn & Masada String Trio – Azazel: Book of Angels, Volume 2 (2005) {Tzadik TZ 7351}
John Zorn – Malphas: Book Of Angels, Volume 3 (2006) {Tzadik TZ 7354} (Mark Feldman and Sylvie Courvoisier)
John Zorn – Koby Israelite – Orobas: Book Of Angels, Volume 4 (2006) {Tzadik TZ 7356}
John Zorn & The Cracow Klezmer Band – Balan: Book of Angels, Volume 5 (2006) {Tzadik TZ 7358}

John Zorn & Uri Caine – Moloch: Book of Angels, Vol. 6 (2006) {Tzadik TZ 7360}
Marc Ribot & John Zorn – Asmodeus: Book Of Angels, Volume 7 (2007) {Tzadik TZ 7362}
John Zorn & Eric Friedlander – Volac: Book of Angels, Vol. 8 (2007) {Tzadik TZ 7363}
John Zorn & Secret Chiefs 3 – Xaphan: Book of Angels, Vol. 9 (2008) {Tzadik TZ 7364}
John Zorn – Lucifer: Book Of Angels Volume 10 – Bar Kokhba (2008) {Tzadik TZ 7367}

Medeski, Martin, and Wood (John Zorn) – Zaebos: Book of Angels Vol. 11 (2008) {Tzadik}
John Zorn & Mycale – Mycale: Book Of Angels Volume 13 (2010) {Tzadik}
Zion80 – Adramelech: The Book Of Angels vol. 22 (2014) {Tzadik Archival Series, TZ 8319}
John Zorn & Roberto Rodriguez – Aguares: Book Of Angels, Volume 23 (2014) {Tzadik TZ 8322}
Klezmerson & John Zorn – Amon: Book Of Angels Volume 24 (2015) {Tzadik}

John Zorn & Mycale – Gomory – Book Of Angels Volume 25 (2015) {Tzadik TZ 8332}
John Zorn & The Spike Orchestra – Cerberus: Book Of Angels, Volume 26 (2015) {Tzadik TZ 8338}
John Zorn – Flaga: Book of Angels Volume 27 (2016) {Tzadik TZ 8341}
John Zorn & Nova Express Quintet – Andras: Book of Angels, Volume 28 (2016) {Tzadik TZ 8343}
John Zorn & AutorYno – Flauros: Book of Angels Volume 29 (2016) {Tzadik TZ 8346}

NEXT -> More Tzadik & Book of Angels Series on the way…

===

John Zorn and Garth Knox & The Saltarello Trio – Leonard: Book of Angels, Vol. 30 (2017) {Tzadik TZ 8350} Download, Warez, DDL, Free, Full Album, Torrent, Legal.

Tags:

  • Garth Knox & The Saltarello Trio [2017] plays Masada Book Two [Leonard]
Download