John Renbourn Group – The Enchanted Garden (1980) | ViralVideoPk

Daily Dose of Free Downloads

John Renbourn Group – The Enchanted Garden (1980)

Download

John Renbourn Group - The Enchanted Garden (1980)

John Renbourn Group – The Enchanted Garden (1980)
EAC | Flac(Image) + Cue + Log & MP3 CBR 320Kbps
2005 | Sanctuary Records, CMRCD 1123 | ~ 201 or 90 Mb | Scans(jpg) -> 134 Mb
Folk, British Folk Rock

An unusually enchanting album, even for John Renbourn; The Enchanted Garden is a follow-up to the John Renbourn Group’s 1977 A Maid in Bedlam, devoted to medieval and Renaissance dance and classical music, as well as folk material and Indian ragas. The opening "Pavane" and "Tourdion," not to mention the 18th century carol "The Truth from Above" – all among the prettiest pieces with which Renbourn has been associated – are the sort of material that Noah Greenberg and New York Pro Musica used to do for classical audiences in the late ’50s, and there’s a Rameau harpsichord piece transcribed for dulcimer here, as well. Not that they don’t "folk out" in various sections of this record – "The Plains of Waterloo," with Jacqui McShee’s vocals, could almost have passed for a Pentangle track, and she turns in one of her best performances ever (rivaling Sandy Denny’s best) on the eerie and haunting "The Maid on the Shore" and "A Bold Young Farmer" (in her own arrangement). The dazzling eight-minute finale, "Sidi Brahim," is arguably one of the finest meldings of Eastern and Western musical influences you’ll ever hear, with a subtlety and developmental sophistication that would humble George Harrison and Co. John Molineux, who plays the mandolin and dulcimer as well as fiddle, succeeds fiddle player Sue Draheim in the band, which also includes Glen Tommy on snare drum, Tony Roberts on flutes and recorders, and Keshav Sathe on tabla and finger cymbals.

by Bruce Eder, allmusic

John Renbourn Group – The Enchanted Garden (1980):

John Renbourn Group - The Enchanted Garden (1980)

Tracklist:

01 – Belle Qui Tient Ma Vie/Tourdion
02 – The Truth From Above
03 – Le Tambourin
04 – The Plains Of Waterloo
05 – The Maid On The Shore
06 – Douce Dame Jolie
07 – A Bold Young Farmer
08 – Sidi Brahim

EAC Log
Exact Audio Copy V1.0 beta 6 from 9. April 2015

EAC extraction logfile from 9. June 2015, 16:54

John Renbourn Group / The Enchanted Garden

Used drive : PLEXTOR DVDR PX-891SA Adapter: 0 ID: 2

Read mode : Secure
Utilize accurate stream : Yes
Defeat audio cache : Yes
Make use of C2 pointers : No

Read offset correction : 6
Overread into Lead-In and Lead-Out : No
Fill up missing offset samples with silence : Yes
Delete leading and trailing silent blocks : No
Null samples used in CRC calculations : Yes
Used interface : Installed external ASPI interface

Used output format : User Defined Encoder
Selected bitrate : 320 kBit/s
Quality : High
Add ID3 tag : No
Command line compressor : C:Program FilesExact Audio Copy 1.0 b6Exact Audio CopyFlacflac.exe
Additional command line options : -V -8 -T "Date=%year%" -T "Genre=%genre%" %source%

TOC of the extracted CD

Track | Start | Length | Start sector | End sector
––––––––––––––––––––––––––––-
1 | 0:00.00 | 5:55.53 | 0 | 26677
2 | 5:55.53 | 2:18.45 | 26678 | 37072
3 | 8:14.23 | 3:08.27 | 37073 | 51199
4 | 11:22.50 | 7:31.30 | 51200 | 85054
5 | 18:54.05 | 5:00.35 | 85055 | 107589
6 | 23:54.40 | 3:12.40 | 107590 | 122029
7 | 27:07.05 | 2:25.05 | 122030 | 132909
8 | 29:32.10 | 8:31.15 | 132910 | 171249

Range status and errors

Selected range

Filename L:Lossless TempJohn Renbourn1980. John Renbourn Group – The Enchanted Garden (2005 Sanctuary Records, CMRCD 1123, E.U.)John Renbourn Group – The Enchanted Garden.wav

Peak level 93.3 %
Extraction speed 7.4 X
Range quality 100.0 %
Test CRC B76237CA
Copy CRC B76237CA
Copy OK

No errors occurred

AccurateRip summary

Track 1 cannot be verified as accurate (confidence 3) [12B6AE5B], AccurateRip returned [825779CC] (AR v2)
Track 2 cannot be verified as accurate (confidence 3) [B1648BBD], AccurateRip returned [D43261E3] (AR v2)
Track 3 cannot be verified as accurate (confidence 3) [C3122887], AccurateRip returned [1BEFFD79] (AR v2)
Track 4 cannot be verified as accurate (confidence 3) [E6A2C7D2], AccurateRip returned [0E70B103] (AR v2)
Track 5 cannot be verified as accurate (confidence 3) [A39F81E4], AccurateRip returned [63A60C2E] (AR v2)
Track 6 cannot be verified as accurate (confidence 3) [444E50FD], AccurateRip returned [922D368D] (AR v2)
Track 7 cannot be verified as accurate (confidence 3) [BB12E111], AccurateRip returned [F4E82EE7] (AR v2)
Track 8 cannot be verified as accurate (confidence 3) [937A26E5], AccurateRip returned [96D3C4BD] (AR v2)

No tracks could be verified as accurate
You may have a different pressing from the one(s) in the database

End of status report

==== Log checksum AC8C524D406E907D8456D2BB50D886C2695EC0BEE496FE7B0D08E7B7A396BD99 ====

DR Log
foobar2000 1.2.9 / Dynamic Range Meter 1.1.1
log date: 2017-01-07 00:11:42

––––––––––––––––––––––––––––––––––––––––
Analyzed: John Renbourn Group / The Enchanted Garden
––––––––––––––––––––––––––––––––––––––––

DR Peak RMS Duration Track
––––––––––––––––––––––––––––––––––––––––
DR14 -0.60 dB -19.71 dB 5:56 01-Belle Qui Tient Ma Vie-Tourdion
DR13 -2.54 dB -18.85 dB 2:19 02-The Truth From Above
DR15 -1.74 dB -19.66 dB 3:08 03-Le Tambourin
DR12 -2.21 dB -17.92 dB 7:31 04-The Plains Of Waterloo
DR11 -1.57 dB -18.35 dB 5:00 05-The Maid On The Shore
DR13 -2.46 dB -18.93 dB 3:13 06-Douce Dame Jolie
DR10 -7.42 dB -21.36 dB 2:25 07-A Bold Young Farmer
DR14 -1.03 dB -20.18 dB 8:31 08-Sidi Brahim
––––––––––––––––––––––––––––––––––––––––

Number of tracks: 8
Official DR value: DR13

Samplerate: 44100 Hz
Channels: 2
Bits per sample: 16
Bitrate: 718 kbps
Codec: FLAC
================================================================================

CUETools Log
[CUETools log; Date: 09.06.2015 17:51:53; Version: 2.0.9]
[AccurateRip ID: 000b325a-004ac073-7408eb08] found.
Track [ CRC ] Status
01 [d7ad55b1] (02/11) No match but offset
02 [d363a4a4] (02/11) No match but offset
03 [b526f502] (02/11) No match but offset
04 [a72e01c3] (02/09) No match but offset
05 [58143a3e] (02/11) No match but offset
06 [f916b48e] (02/11) No match but offset
07 [4fec7632] (02/11) No match but offset
08 [afe6ffe3] (02/11) No match but offset
Offsetted by -18:
01 [5fdc5a9f] (02/11) Accurately ripped
02 [ad7f993e] (02/11) Accurately ripped
03 [58030324] (02/11) Accurately ripped
04 [74d9226b] (02/09) Accurately ripped
05 [913416be] (02/11) Accurately ripped
06 [a6f7f304] (02/11) Accurately ripped
07 [13341b2a] (02/11) Accurately ripped
08 [a0e22b1f] (02/11) Accurately ripped
Offsetted by 682:
01 [76f0b75b] (02/11) Accurately ripped
02 [19b23812] (02/11) Accurately ripped
03 [d378dd88] (02/11) Accurately ripped
04 [8bf69e3b] (02/09) Accurately ripped
05 [c74097be] (02/11) Accurately ripped
06 [0415cb50] (02/11) Accurately ripped
07 [13a7449a] (02/11) Accurately ripped
08 [5aba7d57] (02/11) Accurately ripped
Offsetted by -664:
01 [b03aef19] (02/11) No match but offset
02 [b2f91c9c] (02/11) No match but offset
03 [f3f8fe5a] (02/11) No match but offset
04 [f4ba44a3] (00/09) No match
05 [afc8003e] (02/11) No match but offset
06 [40365f56] (02/11) No match but offset
07 [c8ea02d2] (02/11) No match but offset
08 [14185733] (02/11) No match but offset
Offsetted by 18:
01 [4f7e50c3] (02/11) No match but offset
02 [f947b00a] (02/11) No match but offset
03 [124ae6e0] (02/11) No match but offset
04 [d982e11b] (02/09) No match but offset
05 [1ef45dbe] (02/11) No match but offset
06 [4b357618] (02/11) No match but offset
07 [8ca4d13a] (02/11) No match but offset
08 [beebd4a7] (02/11) No match but offset

Track Peak [ CRC32 ] [W/O NULL] [ LOG ]
– 93,3 [B76237CA] [1FD63D4E] CRC32
01 93,3 [F6A1264D] [EEEB5CC1]
02 74,6 [DA612D26] [A73218D4]
03 81,8 [FC29154A] [2D113DFF]
04 77,5 [DFE04529] [D79816FE]
05 83,4 [E4C86B87] [D06402AF]
06 75,3 [98717603] [C4125B41]
07 42,5 [867D72C3] [BE8A2227]
08 88,8 [F2428D8F] [8DECEE99]

John Renbourn Group - The Enchanted Garden (1980)

All thanks go to Swamp Fox

Download John Renbourn Group – The Enchanted Garden (1980):

John Renbourn Group – The Enchanted Garden (1980) Download, Warez, DDL, Free, Full Album, Torrent, Legal.

Download


  • Recent Posts

  • Recent Tags