John Pizzarelli Trio – Live At Birdland (2003) Repost / New Rip

Download
John Pizzarelli Trio - Live At Birdland (2003) Repost / New Rip

John Pizzarelli Trio – Live At Birdland (2003)
2CD | EAC Rip | FLAC (Img) + Cue + Log ~ 577 Mb | MP3 CBR320 ~ 317 Mb
Scans (JPG, 600 dpi) ~ 39 Mb | RAR 5% Recovery
Jazz | Telarc Jazz #2CD-83577

This is a wonderful, warm-hearted, and effortlessly virtuosic live recording by one of the finest living exponents of pre-bop small-ensemble jazz. With pianist Ray Kennedy and bassist Martin Pizzarelli (and on two songs joined by vocalist Grover Kemble), singer and guitarist John Pizzarelli runs through a generally lightweight but thoroughly charming set of standards, homages, funny stories, and the occasional original tune; the fast tunes are light and frothy, the ballads smooth and gentle, and even the moments that are less than utterly inspired work together with the album’s highlights to create a very satisfying whole. John Pizzarelli has a suit sponsor, which tells you something about what to expect of him as a singer: his voice is smooth and warm, offering a nice combination of Chet Baker’s timbre and Dean Martin’s fullness; as a guitarist you need to know that he favors seven-string guitars and flat-wound strings, leading him naturally to a swinging Django Reinhardt-meets-Freddie Green kind of sound. As for the trio’s instrumentation, it’s true that when you can comp with this kind of authority you don’t technically need a drummer. But on a few tracks a drummer would have filled out the band’s sound nicely. Highlights include the group’s fun, slightly greasy take on "Frim Fram Sauce" and a great ode to Art Tatum called "Tea for Tatum," as well as a fine original blues composition titled "Headed Out to Vera’s." Pizzarelli’s own "Oh, How My Heart Beats for You" and "Day I Found You" are also wonderful. But the album’s standout track is a limpidly gorgeous rendition of another original, "Better Run Before It’s Spring." Pizzarelli is obviously having a blast in the intimate setting of the legendary Birdland club, and so will any jazz lover who takes the time to listen. Very highly recommended.

~ Rick Anderson, All Music
Official Website | Wiki | Discogs | All Music

***************

John Pizzarelli Trio - Live At Birdland (2003) Repost / New Rip

John Pizzarelli Trio - Live At Birdland (2003) Repost / New Rip

Track List CD1:

01. Introduction [0:00:06.57]
02. Just You, Just Me [0:04:41.29]
03. The Frim Fram Sauce [0:05:31.07]
04. The Song Is You [0:06:16.06]
05. Isn’t It A Pity? [0:04:14.25]
06. Rhode Island Intro [0:01:04.40]
07. Rhode Island [0:03:45.04]
08. Ray Kennedy: Library Of Congress Story [0:04:13.68]
09. Gospel Truth [0:05:22.16]
10. Ray Kennedy: Dizzy Gillespie Story [0:03:14.13]
11. Tea For Tatum [0:05:05.69]
12. James Taylor Intro [0:00:11.64]
13. Don’t Let Me Be Lonely Tonight [0:03:14.03]
14. James Taylor Intro 2 [0:01:02.13]
15. Mean Old Man [0:03:49.73]
16. Manhattan [0:04:12.62]
17. Rosemary Clooney Story [0:02:31.61]
18. Moonlight Becomes You [0:03:18.40]
19. Final Intro [0:00:29.71]
20. Will You Still Be Mine? [0:04:24.66]

EAC Log
Exact Audio Copy V1.2 from 12. August 2016

EAC extraction logfile from 7. February 2017, 22:58

John Pizzarelli Trio / Live At Birdland (CD1)

Used drive : PLEXTOR DVDR PX-716A Adapter: 1 ID: 0

Read mode : Secure
Utilize accurate stream : Yes
Defeat audio cache : Yes
Make use of C2 pointers : No

Read offset correction : 30
Overread into Lead-In and Lead-Out : No
Fill up missing offset samples with silence : Yes
Delete leading and trailing silent blocks : No
Null samples used in CRC calculations : Yes
Used interface : Native Win32 interface for Win NT & 2000

Used output format : User Defined Encoder
Selected bitrate : 1024 kBit/s
Quality : High
Add ID3 tag : No
Command line compressor : C:Program Files (x86)Exact Audio CopyFLACFLAC.EXE
Additional command line options : -6 -V -T "ARTIST=%artist%" -T "TITLE=%title%" -T "ALBUM=%albumtitle%" -T "DATE=%year%" -T "TRACKNUMBER=%tracknr%" -T "GENRE=%genre%" -T "COMMENT=%comment%" -T "BAND=%albuminterpret%" -T "ALBUMARTIST=%albuminterpret%" -T "COMPOSER=%composer%" %haslyrics%–tag-from-file=LYRICS="%lyricsfile%"%haslyrics% -T "DISCNUMBER=%cdnumber%" -T "TOTALDISCS=%totalcds%" -T "TOTALTRACKS=%numtracks%" %hascover%–picture="%coverfile%"%hascover% %source% -o %dest%

TOC of the extracted CD

Track | Start | Length | Start sector | End sector
––––––––––––––––––––––––––––-
1 | 0:00.00 | 0:06.57 | 0 | 506
2 | 0:06.57 | 4:41.29 | 507 | 21610
3 | 4:48.11 | 5:31.07 | 21611 | 46442
4 | 10:19.18 | 6:16.06 | 46443 | 74648
5 | 16:35.24 | 4:14.25 | 74649 | 93723
6 | 20:49.49 | 1:04.40 | 93724 | 98563
7 | 21:54.14 | 3:45.04 | 98564 | 115442
8 | 25:39.18 | 4:13.68 | 115443 | 134485
9 | 29:53.11 | 5:22.16 | 134486 | 158651
10 | 35:15.27 | 3:14.13 | 158652 | 173214
11 | 38:29.40 | 5:05.69 | 173215 | 196158
12 | 43:35.34 | 0:11.64 | 196159 | 197047
13 | 43:47.23 | 3:14.03 | 197048 | 211600
14 | 47:01.26 | 1:02.13 | 211601 | 216263
15 | 48:03.39 | 3:49.73 | 216264 | 233511
16 | 51:53.37 | 4:12.62 | 233512 | 252473
17 | 56:06.24 | 2:31.61 | 252474 | 263859
18 | 58:38.10 | 3:18.40 | 263860 | 278749
19 | 61:56.50 | 0:29.71 | 278750 | 280995
20 | 62:26.46 | 4:24.66 | 280996 | 300861

Range status and errors

Selected range

Filename C:mmJohn Pizzarelli2003 – Live at Birdland [2CD-83577]John Pizzarelli Trio – Live At Birdland (CD1).wav

Peak level 100.0 %
Extraction speed 13.6 X
Range quality 100.0 %
Test CRC BDF139F0
Copy CRC BDF139F0
Copy OK

No errors occurred

AccurateRip summary

Track 1 accurately ripped (confidence 26) [42C3DEEB] (AR v2)
Track 2 accurately ripped (confidence 26) [57524382] (AR v2)
Track 3 accurately ripped (confidence 26) [4C075364] (AR v2)
Track 4 accurately ripped (confidence 26) [50FE5CF0] (AR v2)
Track 5 accurately ripped (confidence 26) [2EA86250] (AR v2)
Track 6 accurately ripped (confidence 26) [FE5251AC] (AR v2)
Track 7 accurately ripped (confidence 26) [DBF47E37] (AR v2)
Track 8 accurately ripped (confidence 26) [298C5CB6] (AR v2)
Track 9 accurately ripped (confidence 26) [5E7107E4] (AR v2)
Track 10 accurately ripped (confidence 26) [D81E34FE] (AR v2)
Track 11 accurately ripped (confidence 26) [523924A0] (AR v2)
Track 12 accurately ripped (confidence 26) [23430EE7] (AR v2)
Track 13 accurately ripped (confidence 25) [CBDD8885] (AR v2)
Track 14 accurately ripped (confidence 26) [21F23172] (AR v2)
Track 15 accurately ripped (confidence 26) [A2FE39D2] (AR v2)
Track 16 accurately ripped (confidence 26) [8892E263] (AR v2)
Track 17 accurately ripped (confidence 26) [57C6FC3C] (AR v2)
Track 18 accurately ripped (confidence 26) [FB2B07F6] (AR v2)
Track 19 accurately ripped (confidence 26) [999500B5] (AR v2)
Track 20 accurately ripped (confidence 25) [E5D8C5FC] (AR v2)

All tracks accurately ripped

End of status report

–– CUETools DB Plugin V2.1.6

[CTDB TOCID: tIrvDpmCY4Cerom01cNjF8ukIqU-] found
Submit result: tIrvDpmCY4Cerom01cNjF8ukIqU- has been confirmed
Track | CTDB Status
1 | (19/24) Accurately ripped
2 | (19/24) Accurately ripped
3 | (19/24) Accurately ripped
4 | (19/24) Accurately ripped
5 | (19/24) Accurately ripped
6 | (19/24) Accurately ripped
7 | (19/24) Accurately ripped
8 | (19/24) Accurately ripped
9 | (19/24) Accurately ripped
10 | (19/24) Accurately ripped
11 | (19/24) Accurately ripped
12 | (19/24) Accurately ripped
13 | (19/24) Accurately ripped
14 | (19/24) Accurately ripped
15 | (19/24) Accurately ripped
16 | (19/24) Accurately ripped
17 | (19/24) Accurately ripped
18 | (19/24) Accurately ripped
19 | (19/24) Accurately ripped
20 | (19/24) Accurately ripped

DR Log
foobar2000 1.2.6 / Dynamic Range Meter 1.1.1
log date: 2017-02-11 00:17:11

––––––––––––––––––––––––––––––––––––––––
Analyzed: John Pizzarelli Trio / Live At Birdland (CD1)
––––––––––––––––––––––––––––––––––––––––

DR Peak RMS Duration Track
––––––––––––––––––––––––––––––––––––––––
DR16 -12.11 dB -29.11 dB 0:07 01-Introduction
DR14 -0.35 dB -18.46 dB 4:41 02-Just You, Just Me
DR14 -2.68 dB -20.88 dB 5:31 03-The Frim Fram Sauce
DR12 0.00 dB -16.18 dB 6:16 04-The Song Is You
DR17 -3.93 dB -27.94 dB 4:14 05-Isn’t It A Pity?
DR15 -5.66 dB -27.95 dB 1:05 06-Rhode Island Intro
DR14 -3.08 dB -21.86 dB 3:45 07-Rhode Island
DR18 -4.33 dB -30.26 dB 4:14 08-Ray Kennedy: Library Of Congress Story
DR14 -0.37 dB -20.09 dB 5:22 09-Gospel Truth
DR17 -8.90 dB -30.71 dB 3:14 10-Ray Kennedy: Dizzy Gillespie Story
DR14 -2.91 dB -20.49 dB 5:06 11-Tea For Tatum
DR17 -15.25 dB -34.05 dB 0:12 12-James Taylor Intro
DR15 -9.21 dB -29.06 dB 3:14 13-Don’t Let Me Be Lonely Tonight
DR16 -11.17 dB -32.28 dB 1:02 14-James Taylor Intro 2
DR15 -7.09 dB -26.45 dB 3:50 15-Mean Old Man
DR14 -8.71 dB -26.39 dB 4:13 16-Manhattan
DR14 -15.69 dB -34.11 dB 2:32 17-Rosemary Clooney Story
DR15 -14.58 dB -33.12 dB 3:19 18-Moonlight Becomes You
DR14 -7.41 dB -26.56 dB 0:30 19-Final Intro
DR15 -0.53 dB -19.58 dB 4:25 20-Will You Still Be Mine?
––––––––––––––––––––––––––––––––––––––––

Number of tracks: 20
Official DR value: DR15

Samplerate: 44100 Hz
Channels: 2
Bits per sample: 16
Bitrate: 569 kbps
Codec: FLAC
================================================================================

CUETools Log
[CUETools log; Date: 11.02.2017 0:17:19; Version: 2.1.5]
[CTDB TOCID: tIrvDpmCY4Cerom01cNjF8ukIqU-] found.
Track | CTDB Status
1 | (21/26) Accurately ripped
2 | (21/26) Accurately ripped
3 | (21/26) Accurately ripped
4 | (21/26) Accurately ripped
5 | (21/26) Accurately ripped
6 | (21/26) Accurately ripped
7 | (21/26) Accurately ripped
8 | (21/26) Accurately ripped
9 | (21/26) Accurately ripped
10 | (21/26) Accurately ripped
11 | (21/26) Accurately ripped
12 | (21/26) Accurately ripped
13 | (21/26) Accurately ripped
14 | (21/26) Accurately ripped
15 | (21/26) Accurately ripped
16 | (21/26) Accurately ripped
17 | (21/26) Accurately ripped
18 | (21/26) Accurately ripped
19 | (21/26) Accurately ripped
20 | (21/26) Accurately ripped
[AccurateRip ID: 00331954-02e623c4-190fab14] found.
Track [ CRC | V2 ] Status
01 [3d9b2ee1|42c3deeb] (17+26/63) Accurately ripped
02 [a054e603|57524382] (17+26/63) Accurately ripped
03 [622bf7e6|4c075364] (17+26/63) Accurately ripped
04 [03eaa30e|50fe5cf0] (17+26/63) Accurately ripped
05 [20cf2bb6|2ea86250] (17+26/62) Accurately ripped
06 [6f65ea48|fe5251ac] (17+26/62) Accurately ripped
07 [6c7c5d85|dbf47e37] (17+26/62) Accurately ripped
08 [b2c98d3b|298c5cb6] (17+26/62) Accurately ripped
09 [9c4f8cf5|5e7107e4] (17+26/62) Accurately ripped
10 [6466dda6|d81e34fe] (17+26/63) Accurately ripped
11 [b764dfd3|523924a0] (17+26/63) Accurately ripped
12 [0f6ca226|23430ee7] (17+26/63) Accurately ripped
13 [e8474fad|cbdd8885] (17+25/62) Accurately ripped
14 [ad35a8b9|21f23172] (17+26/63) Accurately ripped
15 [7adb90e1|a2fe39d2] (17+26/63) Accurately ripped
16 [06f45d0f|8892e263] (17+26/63) Accurately ripped
17 [6760eed8|57c6fc3c] (17+26/63) Accurately ripped
18 [65a83129|fb2b07f6] (17+26/63) Accurately ripped
19 [ac7c0423|999500b5] (17+26/63) Accurately ripped
20 [44792c70|e5d8c5fc] (15+25/60) Accurately ripped
Offsetted by 635:
01 [ff5f7fa4] (08/63) Accurately ripped
02 [328092f6] (08/63) Accurately ripped
03 [aa8d9f81] (08/63) Accurately ripped
04 [81c32d44] (08/63) Accurately ripped
05 [43e5ed9a] (07/62) Accurately ripped
06 [d0cff8b1] (07/62) Accurately ripped
07 [dc66ed4e] (07/62) Accurately ripped
08 [71ab3f15] (07/62) Accurately ripped
09 [562edfe4] (07/62) Accurately ripped
10 [c524c649] (08/63) Accurately ripped
11 [812b9832] (08/63) Accurately ripped
12 [843edd9e] (08/63) Accurately ripped
13 [3c21fab7] (08/62) Accurately ripped
14 [51460375] (08/63) Accurately ripped
15 [075a21fb] (08/63) Accurately ripped
16 [4b128d33] (08/63) Accurately ripped
17 [d0a14434] (08/63) Accurately ripped
18 [a3f16590] (08/63) Accurately ripped
19 [32123843] (08/63) Accurately ripped
20 [710e871b] (08/60) Accurately ripped
Offsetted by 12:
01 [997c8606] (00/63) No match (V2 was not tested)
02 [7529beeb] (00/63) No match (V2 was not tested)
03 [631f47b4] (00/63) No match (V2 was not tested)
04 [d4255684] (00/63) No match (V2 was not tested)
05 [873a08ca] (00/62) No match (V2 was not tested)
06 [a6427738] (00/62) No match (V2 was not tested)
07 [1ec5dae9] (00/62) No match (V2 was not tested)
08 [4a1d09a4] (00/62) No match (V2 was not tested)
09 [0b176874] (00/62) No match (V2 was not tested)
10 [74f02dc6] (00/63) No match (V2 was not tested)
11 [1a78ee9b] (00/63) No match (V2 was not tested)
12 [45f6afd0] (00/63) No match (V2 was not tested)
13 [92941b1a] (00/62) No match (V2 was not tested)
14 [3c6457f7] (00/63) No match (V2 was not tested)
15 [c0fa1c24] (00/63) No match (V2 was not tested)
16 [8e01686a] (00/63) No match (V2 was not tested)
17 [54ee883a] (00/63) No match (V2 was not tested)
18 [c6c8107d] (00/63) No match (V2 was not tested)
19 [c2316b15] (00/63) No match (V2 was not tested)
20 [fab6a034] (00/60) No match (V2 was not tested)

Track Peak [ CRC32 ] [W/O NULL] [ LOG ]
– 100,0 [BDF139F0] [F667C4C0] CRC32
01 24,8 [3FE4F505] [2C79EB63]
02 96,0 [B25F298B] [4A619046]
03 73,4 [E9E73310] [D20FEB0E]
04 100,0 [6A3C067F] [9F37D977]
05 63,6 [484E1F55] [A083C6B1]
06 52,1 [0A7352F5] [938A390F]
07 70,1 [EC734DF8] [00998500]
08 60,7 [E454FE44] [66C8CB9D]
09 95,8 [6636A996] [83639797]
10 35,8 [64C1740F] [66E1EC7E]
11 71,5 [5CB716F5] [DF7AF889]
12 17,2 [A40B0600] [831F9E9F]
13 34,6 [52630647] [31B7913F]
14 27,6 [352F1BCE] [0137939E]
15 44,1 [3618CC63] [56AA2587]
16 36,6 [7076D13F] [B68CA076]
17 16,4 [340A6D39] [C1D33769]
18 18,6 [3E5E238C] [798A8E8A]
19 42,6 [C94AD241] [2761F509]
20 94,0 [C5DEFF6C] [3E4F0A6A]

John Pizzarelli Trio - Live At Birdland (2003) Repost / New Rip

John Pizzarelli Trio - Live At Birdland (2003) Repost / New Rip

Track List CD2:

01. Introduction [0:00:20.06]
02. Three Little Words [0:04:30.37]
03. They Can’t Take That Away From Me [0:06:04.03]
04. Oh, How My Heart Beats for You [0:04:27.34]
05. The Day I Found You [0:03:09.66]
06. Polliwog Story [0:01:44.60]
07. It’s Only a Paper Moon [0:07:41.73]
08. Stompin’ at The Savoy [0:04:44.49]
09. Better Run Before It’s Spring [0:03:40.22]
10. Grover Kemble Story [0:02:55.71]
11. Headed Out to Vera’s [0:03:55.11]
12. Medley: Gee Baby, Ain’t I Good To You [0:05:29.62]
13. I Like Jersey Best Intro [0:00:57.56]
14. I Like Jersey Best [0:08:28.46]
15. My Castle’s Rockin’ [0:03:55.25]
16. Baby Just Come Home to Me [0:03:14.44]

EAC Log
Exact Audio Copy V1.2 from 12. August 2016

EAC extraction logfile from 7. February 2017, 23:16

John Pizzarelli Trio / Live At Birdland (CD2)

Used drive : PLEXTOR DVDR PX-716A Adapter: 1 ID: 0

Read mode : Secure
Utilize accurate stream : Yes
Defeat audio cache : Yes
Make use of C2 pointers : No

Read offset correction : 30
Overread into Lead-In and Lead-Out : No
Fill up missing offset samples with silence : Yes
Delete leading and trailing silent blocks : No
Null samples used in CRC calculations : Yes
Used interface : Native Win32 interface for Win NT & 2000

Used output format : User Defined Encoder
Selected bitrate : 1024 kBit/s
Quality : High
Add ID3 tag : No
Command line compressor : C:Program Files (x86)Exact Audio CopyFLACFLAC.EXE
Additional command line options : -6 -V -T "ARTIST=%artist%" -T "TITLE=%title%" -T "ALBUM=%albumtitle%" -T "DATE=%year%" -T "TRACKNUMBER=%tracknr%" -T "GENRE=%genre%" -T "COMMENT=%comment%" -T "BAND=%albuminterpret%" -T "ALBUMARTIST=%albuminterpret%" -T "COMPOSER=%composer%" %haslyrics%–tag-from-file=LYRICS="%lyricsfile%"%haslyrics% -T "DISCNUMBER=%cdnumber%" -T "TOTALDISCS=%totalcds%" -T "TOTALTRACKS=%numtracks%" %hascover%–picture="%coverfile%"%hascover% %source% -o %dest%

TOC of the extracted CD

Track | Start | Length | Start sector | End sector
––––––––––––––––––––––––––––-
1 | 0:00.00 | 0:20.06 | 0 | 1505
2 | 0:20.06 | 4:30.37 | 1506 | 21792
3 | 4:50.43 | 6:04.03 | 21793 | 49095
4 | 10:54.46 | 4:27.34 | 49096 | 69154
5 | 15:22.05 | 3:09.66 | 69155 | 83395
6 | 18:31.71 | 1:44.60 | 83396 | 91255
7 | 20:16.56 | 7:41.73 | 91256 | 125903
8 | 27:58.54 | 4:44.49 | 125904 | 147252
9 | 32:43.28 | 3:40.22 | 147253 | 163774
10 | 36:23.50 | 2:55.71 | 163775 | 176970
11 | 39:19.46 | 3:55.11 | 176971 | 194606
12 | 43:14.57 | 5:29.62 | 194607 | 219343
13 | 48:44.44 | 0:57.56 | 219344 | 223674
14 | 49:42.25 | 8:28.46 | 223675 | 261820
15 | 58:10.71 | 3:55.25 | 261821 | 279470
16 | 62:06.21 | 3:14.44 | 279471 | 294064

Range status and errors

Selected range

Filename C:mmJohn Pizzarelli2003 – Live at Birdland [2CD-83577]John Pizzarelli Trio – Live At Birdland (CD2).wav

Peak level 100.0 %
Extraction speed 13.6 X
Range quality 100.0 %
Test CRC F06B4C7D
Copy CRC F06B4C7D
Copy OK

No errors occurred

AccurateRip summary

Track 1 accurately ripped (confidence 25) [2BE77575] (AR v2)
Track 2 accurately ripped (confidence 25) [69D71241] (AR v2)
Track 3 accurately ripped (confidence 25) [D1658C48] (AR v2)
Track 4 accurately ripped (confidence 25) [7ABEA084] (AR v2)
Track 5 accurately ripped (confidence 25) [753F67B0] (AR v2)
Track 6 accurately ripped (confidence 25) [6D8CC8F6] (AR v2)
Track 7 accurately ripped (confidence 25) [3711A817] (AR v2)
Track 8 accurately ripped (confidence 25) [18A3A448] (AR v2)
Track 9 accurately ripped (confidence 25) [608E72E5] (AR v2)
Track 10 accurately ripped (confidence 25) [06D4BDDA] (AR v2)
Track 11 accurately ripped (confidence 25) [238882ED] (AR v2)
Track 12 accurately ripped (confidence 24) [41DCE986] (AR v2)
Track 13 accurately ripped (confidence 25) [3D0AF9DD] (AR v2)
Track 14 accurately ripped (confidence 23) [7DD1EF68] (AR v2)
Track 15 accurately ripped (confidence 23) [171FEDEF] (AR v2)
Track 16 accurately ripped (confidence 23) [2B9A2DAC] (AR v2)

All tracks accurately ripped

End of status report

–– CUETools DB Plugin V2.1.6

[CTDB TOCID: vx7eQrDFMl6jXu5NeAieXOZsM1I-] found
Submit result: vx7eQrDFMl6jXu5NeAieXOZsM1I- has been confirmed
Track | CTDB Status
1 | (21/25) Accurately ripped
2 | (21/25) Accurately ripped
3 | (21/25) Accurately ripped
4 | (21/25) Accurately ripped
5 | (21/25) Accurately ripped
6 | (21/25) Accurately ripped
7 | (20/25) Accurately ripped
8 | (21/25) Accurately ripped
9 | (21/25) Accurately ripped
10 | (21/25) Accurately ripped
11 | (21/25) Accurately ripped
12 | (21/25) Accurately ripped
13 | (21/25) Accurately ripped
14 | (21/25) Accurately ripped
15 | (21/25) Accurately ripped
16 | (21/25) Accurately ripped

DR Log
foobar2000 1.2.6 / Dynamic Range Meter 1.1.1
log date: 2017-02-11 00:18:15

––––––––––––––––––––––––––––––––––––––––
Analyzed: John Pizzarelli Trio / Live At Birdland (CD2)
––––––––––––––––––––––––––––––––––––––––

DR Peak RMS Duration Track
––––––––––––––––––––––––––––––––––––––––
DR12 -5.65 dB -25.13 dB 0:20 01-Introduction
DR15 -1.77 dB -19.17 dB 4:30 02-Three Little Words
DR15 -2.64 dB -23.38 dB 6:04 03-They Can’t Take That Away From Me
DR12 -1.28 dB -17.31 dB 4:27 04-Oh, How My Heart Beats for You
DR21 -0.87 dB -27.61 dB 3:10 05-The Day I Found You
DR16 -11.13 dB -32.45 dB 1:45 06-Polliwog Story
DR17 -1.68 dB -23.61 dB 7:42 07-It’s Only a Paper Moon
DR13 -2.29 dB -19.67 dB 4:45 08-Stompin’ at The Savoy
DR13 -9.42 dB -27.26 dB 3:40 09-Better Run Before It’s Spring
DR18 -6.89 dB -32.27 dB 2:56 10-Grover Kemble Story
DR14 -0.03 dB -17.85 dB 3:55 11-Headed Out to Vera’s
DR16 -5.71 dB -27.18 dB 5:30 12-Medley: Gee Baby, Ain’t I Good To You
DR15 -8.96 dB -30.85 dB 0:58 13-I Like Jersey Best Intro
DR13 0.00 dB -18.48 dB 8:29 14-I Like Jersey Best
DR12 0.00 dB -15.81 dB 3:55 15-My Castle’s Rockin’
DR13 -1.40 dB -17.07 dB 3:15 16-Baby Just Come Home to Me
––––––––––––––––––––––––––––––––––––––––

Number of tracks: 16
Official DR value: DR15

Samplerate: 44100 Hz
Channels: 2
Bits per sample: 16
Bitrate: 594 kbps
Codec: FLAC
================================================================================

CUETools Log
[CUETools log; Date: 11.02.2017 0:18:18; Version: 2.1.5]
[CTDB TOCID: vx7eQrDFMl6jXu5NeAieXOZsM1I-] found.
Track | CTDB Status
1 | (23/27) Accurately ripped
2 | (23/27) Accurately ripped
3 | (23/27) Accurately ripped
4 | (23/27) Accurately ripped
5 | (23/27) Accurately ripped
6 | (23/27) Accurately ripped
7 | (22/27) Accurately ripped
8 | (23/27) Accurately ripped
9 | (23/27) Accurately ripped
10 | (23/27) Accurately ripped
11 | (23/27) Accurately ripped
12 | (23/27) Accurately ripped
13 | (23/27) Accurately ripped
14 | (23/27) Accurately ripped
15 | (23/27) Accurately ripped
16 | (23/27) Accurately ripped
[AccurateRip ID: 0024ab10-01c058a5-eb0f5010] found.
Track [ CRC | V2 ] Status
01 [ef44e958|2be77575] (16+25/61) Accurately ripped
02 [175e3811|69d71241] (17+25/62) Accurately ripped
03 [b2c0d40e|d1658c48] (17+25/62) Accurately ripped
04 [334d75cf|7abea084] (17+25/62) Accurately ripped
05 [f1f1bf06|753f67b0] (17+25/62) Accurately ripped
06 [ebabdd2a|6d8cc8f6] (17+25/62) Accurately ripped
07 [09e4fd4e|3711a817] (17+25/62) Accurately ripped
08 [a55b8dad|18a3a448] (17+25/62) Accurately ripped
09 [5fec31ab|608e72e5] (17+25/62) Accurately ripped
10 [cd020c2f|06d4bdda] (17+25/62) Accurately ripped
11 [bbc49b63|238882ed] (17+25/62) Accurately ripped
12 [5be05db8|41dce986] (17+24/60) Accurately ripped
13 [ac81fb2d|3d0af9dd] (17+25/62) Accurately ripped
14 [3a869f17|7dd1ef68] (17+23/60) Accurately ripped
15 [21285114|171fedef] (16+23/59) Accurately ripped
16 [7ea15f44|2b9a2dac] (16+23/59) Accurately ripped
Offsetted by 635:
01 [f32a89b3] (08/61) Accurately ripped
02 [3519e00a] (08/62) Accurately ripped
03 [27e3aca0] (08/62) Accurately ripped
04 [c5c4b718] (08/62) Accurately ripped
05 [58f633e5] (08/62) Accurately ripped
06 [8de7bb2a] (08/62) Accurately ripped
07 [671cb81f] (08/62) Accurately ripped
08 [42aff87c] (08/62) Accurately ripped
09 [e97bf7ab] (08/62) Accurately ripped
10 [51964e2e] (08/62) Accurately ripped
11 [af6e2136] (08/62) Accurately ripped
12 [e6830fa1] (07/60) Accurately ripped
13 [e2186bcc] (08/62) Accurately ripped
14 [9e4705d8] (08/60) Accurately ripped
15 [6c686092] (08/59) Accurately ripped
16 [7891d26f] (08/59) Accurately ripped
Offsetted by 12:
01 [e58da991] (00/61) No match (V2 was not tested)
02 [7670012f] (00/62) No match (V2 was not tested)
03 [f57e311a] (00/62) No match (V2 was not tested)
04 [b89e84a4] (00/62) No match (V2 was not tested)
05 [871e0f91] (00/62) No match (V2 was not tested)
06 [ba167430] (00/62) No match (V2 was not tested)
07 [8cd47ba3] (00/62) No match (V2 was not tested)
08 [be631651] (00/62) No match (V2 was not tested)
09 [5bf32299] (00/62) No match (V2 was not tested)
10 [090df7c0] (00/62) No match (V2 was not tested)
11 [b3400999] (00/62) No match (V2 was not tested)
12 [6db54c5d] (00/60) No match (V2 was not tested)
13 [aeb66fbf] (00/62) No match (V2 was not tested)
14 [6a850c24] (00/60) No match (V2 was not tested)
15 [0f50116e] (00/59) No match (V2 was not tested)
16 [61be0d3f] (00/59) No match (V2 was not tested)

Track Peak [ CRC32 ] [W/O NULL] [ LOG ]
– 100,0 [F06B4C7D] [3EB569AD] CRC32
01 52,1 [16BB84C4] [8BF35BF1]
02 81,5 [B935B570] [8715EF98]
03 73,8 [FA628911] [8DBFDD21]
04 86,3 [990609FA] [10B83B22]
05 90,5 [BC15DB92] [BA3406A8]
06 27,7 [219AC493] [136D7221]
07 82,4 [40982D31] [2BAFE5B1]
08 76,8 [9BCFE32B] [B30E0234]
09 33,7 [BAAAFD22] [ED912909]
10 45,2 [B1526BF3] [CE513008]
11 99,6 [C717DF79] [3A5AAD27]
12 51,8 [7474AEDC] [B3C03D19]
13 35,6 [55958D8C] [1B361A64]
14 100,0 [9A2E7C4B] [01C0F49F]
15 100,0 [88806E75] [C8ADE0AC]
16 85,0 [DF3B35F1] [CCB4F5A5]

Personnel:
John Pizzarelli – vocals, guitar
Ray Kennedy – piano
Martin Pizzarelli – double-bass
Grover Kemble – vocals

John Pizzarelli Trio - Live At Birdland (2003) Repost / New Rip

All thanks go to sergych

> John Pizzarelli in my blog <

John Pizzarelli Trio – Live At Birdland (2003) Repost / New Rip Download, Warez, DDL, Free, Full Album, Torrent, Legal.

Download