John Lennon & Yoko Ono – Milk And Honey (1984)

Download
John Lennon & Yoko Ono - Milk And Honey (1984)

John Lennon & Yoko Ono – Milk And Honey (1984)
EAC | Flac(Image) + Cue + Log & MP3 CBR 320Kbps
PolyGram, 817 160-2 | ~ 205 or 87 Mb | Scans(jpg) -> 76 Mb
Pop Rock / Classic Rock

The sessions for 1980’s Double Fantasy were supposed to yield two albums, the second to be released at a future time, but Lennon’s assassination tragically halted the project in its tracks. A bit over three years later, Yoko Ono issued tapes of many of the songs planned for that album under the title Milk and Honey, laid out in the same John-Yoko-John-Yoko dialogue fashion as its predecessor. Not unexpectedly, it’s a rougher, less polished product, lacking the finishing touches and additional takes that Lennon most likely would have called for. Nevertheless, Lennon’s songs at this point in their development were often quite strong, tougher than those on Double Fantasy in general, and the ad libs and studio chatter that might not have made the final cut give us more of a glimpse of Lennon’s delightfully quirky personality. "Nobody Told Me," the advance single off the album, is a rollicking, quizzical piece of work, maybe the best thing to come out of John’s 1980 sessions, despite the unfinished-sounding transition to the chorus. "Borrowed Time," another single, is a thoughtful, sparely worded meditation on growing older attached to a Caribbean beat. Yoko’s contributions, while not as strong as John’s, are surprisingly listenable – the reggae-based "Don’t Be Scared," in particular – and more current in texture, and her lyrics do tend to answer John’s songs. As the album comes toward the close, the tone turns sentimental, culminating with one of John’s loveliest tunes, "Grow Old With Me," as presented on a home-recorded cassette in lieu of a studio recording. The ironies of this song and some of the other Lennon material are obviously poignant in the light of the cruel events of December 8, 1980; that and the fact that these songs haven’t been as exposed as much as those on Double Fantasy lead some to prefer this sequel.

by Richard S. Ginell, allmusic

John Lennon & Yoko Ono - Milk And Honey (1984)

John Lennon at Wiki | John Lennon at Discogs | John Lennon at Allmusic

***********

John Lennon & Yoko Ono – Milk And Honey (1984):

John Lennon & Yoko Ono - Milk And Honey (1984)

Tracklist:

01. I’m Stepping Out [4:07]
02. Sleepless Night [2:34]
03. I Don’t Wanna Face It [3:22]
04. Don’t Be Scared [2:45]
05. Nobody Told Me [3:34]
06. O’ Sanity [1:06]
07. Borrowed Time [4:29]
08. Your Hands [3:04]
09. (Forgive Me) My Little Flower Princess [2:28]
10. Let Me Count The Ways [2:17]
11. Grow Old With Me [3:04]
12. You’re The One [3:55]

EAC Log
Exact Audio Copy V1.3 from 2. September 2016

EAC extraction logfile from 28. January 2017, 20:12

JOHN LENNON & YOKO ONO / Milk and Honey (W.Germany, Polydor, 817 160-2)

Used drive : ASUS DRW-24B3ST Adapter: 1 ID: 2

Read mode : Secure
Utilize accurate stream : Yes
Defeat audio cache : Yes
Make use of C2 pointers : No

Read offset correction : 6
Overread into Lead-In and Lead-Out : No
Fill up missing offset samples with silence : Yes
Delete leading and trailing silent blocks : No
Null samples used in CRC calculations : Yes
Used interface : Native Win32 interface for Win NT & 2000

Used output format : User Defined Encoder
Selected bitrate : 1024 kBit/s
Quality : High
Add ID3 tag : No
Command line compressor : C:Program FilesEAC(v.1.3)WVwavpack.exe
Additional command line options : -h -hh -m %source%

TOC of the extracted CD

Track | Start | Length | Start sector | End sector
––––––––––––––––––––––––––––-
1 | 0:00.32 | 4:06.60 | 32 | 18541
2 | 4:07.17 | 2:33.53 | 18542 | 30069
3 | 6:40.70 | 3:21.72 | 30070 | 45216
4 | 10:02.67 | 2:44.45 | 45217 | 57561
5 | 12:47.37 | 3:34.13 | 57562 | 73624
6 | 16:21.50 | 1:06.32 | 73625 | 78606
7 | 17:28.07 | 4:28.53 | 78607 | 98759
8 | 21:56.60 | 3:04.10 | 98760 | 112569
9 | 25:00.70 | 2:28.12 | 112570 | 123681
10 | 27:29.07 | 2:16.60 | 123682 | 133941
11 | 29:45.67 | 3:03.53 | 133942 | 147719
12 | 32:49.45 | 3:55.32 | 147720 | 165376

Range status and errors

Selected range

Filename F:JOHN LENNON & YOKO ONO – Milk And Honey (DE 1984 PolyGram Records • 817 160-2)JOHN LENNON & YOKO ONO – Milk and Honey (W.Germany, Polydor, 817 160-2).wav

Peak level 87.0 %
Extraction speed 7.0 X
Range quality 100.0 %
Test CRC E63BBE48
Copy CRC E63BBE48
Copy OK

No errors occurred

AccurateRip summary

Track 1 accurately ripped (confidence 24) [50DD2DA1] (AR v2)
Track 2 accurately ripped (confidence 23) [07A8C0AC] (AR v2)
Track 3 accurately ripped (confidence 24) [733DEE1C] (AR v2)
Track 4 accurately ripped (confidence 23) [C473DD09] (AR v2)
Track 5 accurately ripped (confidence 24) [BE3E4C41] (AR v2)
Track 6 accurately ripped (confidence 23) [B7B6D349] (AR v2)
Track 7 accurately ripped (confidence 24) [668C4110] (AR v2)
Track 8 accurately ripped (confidence 23) [5BCD3DA4] (AR v2)
Track 9 accurately ripped (confidence 24) [1960FCA1] (AR v2)
Track 10 accurately ripped (confidence 23) [A3571D0E] (AR v2)
Track 11 accurately ripped (confidence 23) [4B19AC48] (AR v2)
Track 12 accurately ripped (confidence 22) [CC03DAB2] (AR v2)

All tracks accurately ripped

End of status report

==== Log checksum 8ABDA61A71D2A7A249390A90A6BCF24961486D04D0865A45349ED9D76A226008 ====

DR Log
foobar2000 1.2.9 / Dynamic Range Meter 1.1.1
log date: 2017-02-11 00:04:20

––––––––––––––––––––––––––––––––––––––––
Analyzed: JOHN LENNON & YOKO ONO / Milk and Honey (W.Germany, Polydor, 817 160-2)
––––––––––––––––––––––––––––––––––––––––

DR Peak RMS Duration Track
––––––––––––––––––––––––––––––––––––––––
DR15 -1.20 dB -18.12 dB 4:07 01-I’m Stepping Out
DR16 -1.89 dB -20.90 dB 2:34 02-Sleepless Night
DR14 -2.07 dB -18.95 dB 3:22 03-I Don’t Wanna Face It
DR16 -3.41 dB -22.92 dB 2:45 04-Don’t Be Scared
DR14 -1.83 dB -18.49 dB 3:34 05-Nobody Told Me
DR15 -3.42 dB -23.97 dB 1:06 06-O’ Sanity
DR17 -1.20 dB -20.58 dB 4:29 07-Borrowed Time
DR15 -1.20 dB -17.94 dB 3:04 08-Your Hands
DR16 -1.20 dB -19.58 dB 2:28 09-(Forgive Me) My Little Flower Princess
DR12 -5.14 dB -25.22 dB 2:17 10-Let Me Count The Ways
DR11 -8.30 dB -22.47 dB 3:04 11-Grow Old With Me
DR14 -3.71 dB -20.60 dB 3:55 12-You’re The One
––––––––––––––––––––––––––––––––––––––––

Number of tracks: 12
Official DR value: DR15

Samplerate: 44100 Hz
Channels: 2
Bits per sample: 16
Bitrate: 759 kbps
Codec: FLAC

CUETools Log
[CUETools log; Date: 11.02.2017 0:04:10; Version: 2.1.4]
Pregap length 00:00:32.
[CTDB TOCID: oFBXawc2avYl5o6fEA13e4x9v8w-] found.
Track | CTDB Status
1 | (26/26) Accurately ripped
2 | (26/26) Accurately ripped
3 | (26/26) Accurately ripped
4 | (26/26) Accurately ripped
5 | (26/26) Accurately ripped
6 | (26/26) Accurately ripped
7 | (26/26) Accurately ripped
8 | (26/26) Accurately ripped
9 | (26/26) Accurately ripped
10 | (26/26) Accurately ripped
11 | (26/26) Accurately ripped
12 | (26/26) Accurately ripped
[AccurateRip ID: 0010910a-0098f400-9c089d0c] found.
Track [ CRC | V2 ] Status
01 [975c157f|50dd2da1] (23+24/47) Accurately ripped
02 [e2f2ee38|07a8c0ac] (21+23/44) Accurately ripped
03 [85d0958f|733dee1c] (22+24/46) Accurately ripped
04 [29e4e2b3|c473dd09] (21+23/44) Accurately ripped
05 [7cdb7155|be3e4c41] (22+24/46) Accurately ripped
06 [1c042411|b7b6d349] (20+23/43) Accurately ripped
07 [756bfc67|668c4110] (23+24/47) Accurately ripped
08 [abc60b26|5bcd3da4] (21+23/44) Accurately ripped
09 [dcb03721|1960fca1] (22+24/46) Accurately ripped
10 [0e86f8b9|a3571d0e] (20+23/43) Accurately ripped
11 [531ec412|4b19ac48] (21+23/44) Accurately ripped
12 [c864e606|cc03dab2] (21+22/43) Accurately ripped

Track Peak [ CRC32 ] [W/O NULL] [ LOG ]
– 87,0 [E63BBE48] [2950867B] CRC32
01 87,0 [E3E26C70] [5F10F249]
02 80,4 [D0382D2B] [E677366F]
03 78,8 [28E0860B] [F10D0206]
04 67,5 [218B43D4] [CEB3B9AC]
05 80,9 [25797C76] [9A10C1A4]
06 67,4 [B9AD9689] [B7DDA51B]
07 87,0 [AD986F56] [443DAFF2]
08 87,0 [E71D97DD] [85DF5FAE]
09 87,0 [26EFA044] [6BC1EC06]
10 55,3 [F068C34F] [28A636D5]
11 38,4 [A6012111] [D687C81E]
12 65,2 [84E310FC] [33CD36F3]

John Lennon & Yoko Ono - Milk And Honey (1984)

All thanks go to the original releaser

John Lennon in my Blog

Download John Lennon & Yoko Ono – Milk And Honey (1984):

John Lennon & Yoko Ono – Milk And Honey (1984) Download, Warez, DDL, Free, Full Album, Torrent, Legal.

Download