John Cale & Terry Riley – Church Of Anthrax (1971) [Remastered 2008]

Download
John Cale & Terry Riley - Church Of Anthrax (1971) [Remastered 2008]

John Cale & Terry Riley – Church Of Anthrax (1971) [Remastered 2008]
EAC Rip | FLAC: Image+Cue+Log | 240 Mb | MP3 CBR 320 kbps | 82 Mb | Scans | Time: 33:35
Wounded Bird Records | WOU 131
Rock, Art Rock, Avant-Garde, Experimental

Church of Anthrax is a collaborative studio album by musicians John Cale and Terry Riley. It was released in February 1971 by record label Columbia, nearly a year after the material was recorded; in fact, it was recorded prior to Cale’s solo debut Vintage Violence. This album marks a cross-pollination. Cale may have been returning to his Minimalist roots, but he still had the sound of VU’s white noise ringing in his ears and as a consequence managed to produce a brilliantly messy, repetitious rock record.

John Cale & Terry Riley - Church Of Anthrax (1971) [Remastered 2008]
John Cale
Wikipedia | Amazon

Track Listing

01. Church Of Anthrax (08:59)
02. The Hall Of Mirrors In The Palace At Versailles (07:58)
03. The Soul Of Patrick Lee (02:46)
04. Ides Of March (010:59)
05. The Protege (02:53)

Produced by John Cale & John McClure

Musicians

• John Cale – bass, piano, guitar, viola, organ
• Terry Riley – piano, organ, soprano saxophone

*****
• Adam Miller – vocals on "The Soul of Patrick Lee"
• Bobby Colomby, Bobby Gregg – drums

EAC Log
Exact Audio Copy V0.99 prebeta 4 from 23. January 2008

Отчёт EAC об извлечении, выполненном 3. января 2010, 23:27

John Cale & Terry Riley / Church Of Anthrax

Дисковод: ASUS DRW-1814BLT Adapter: 2 ID: 0

Режим чтения : Достоверность
Использование точного потока : Да
Отключение кэша аудио : Да
Использование указателей C2 : Нет

Коррекция смещения при чтении : 6
Способность читать области Lead-in и Lead-out : Нет
Заполнение пропущенных сэмплов тишиной : Да
Удаление блоков с тишиной в начале и конце : Нет
При вычислениях CRC использовались нулевые сэмплы : Да
Интерфейс : Встроенный Win32-интерфейс для Win NT/2000

Выходной формат : Пользовательский кодировщик
Выбранный битрейт : 256 kBit/s
Качество : Высокий
Добавление ID3-тэга : Нет
Утилита сжатия : D:Program FilesExact Audio CopyFlacflac.exe
Дополнительные параметры : -8 –delete-input-file -o "D:CDImage.flac" -V %s

TOC извлечённого CD

Трек | Старт | Длительность | Начальный сектор | Конечный сектор
––––––––––––––––––––––––––––––––––-
1 | 0:00.00 | 8:59.12 | 0 | 40436
2 | 8:59.12 | 7:57.51 | 40437 | 76262
3 | 16:56.63 | 2:46.13 | 76263 | 88725
4 | 19:43.01 | 10:59.19 | 88726 | 138169
5 | 30:42.20 | 2:52.47 | 138170 | 151116

Характеристики диапазона извлечения и сообщения об ошибках

Выбранный диапазон

Имя файла D:John Cale & Terry Riley – Church Of Anthrax.wav

Пиковый уровень 96.2 %
Качество диапазона 100.0 %
CRC теста 3757B210
CRC копии 3757B210
Копирование… OK

Ошибок не произошло

AccurateRip: сводка

Трек 1 точное извлечение (доверие 1) [60A01037]
Трек 2 точное извлечение (доверие 1) [40BA9ED1]
Трек 3 точное извлечение (доверие 1) [2B6E3ECA]
Трек 4 точное извлечение (доверие 1) [AA557233]
Трек 5 точное извлечение (доверие 1) [DEF2F6DB]

Все треки извлечены точно

Конец отчёта

Many thanks to the original uploader: orbster

SEE also:
John Cale 1970 Vintage Violence [Remastered 2001]

……
Welcome to My Blog for more wonderful music!
……

John Cale & Terry Riley – Church Of Anthrax (1971) [Remastered 2008] Download, Warez, DDL, Free, Full Album, Torrent, Legal.

Download