Joe Sample – Roles (1987) {MCA}

Download
Joe Sample - Roles (1987) {MCA}

Joe Sample – Roles (1987) {MCA}
EAC 1.0b3 | FLAC tracks level 8 | Cue+Log+M3U | Full Scans 300dpi | 374MB + 5% Recovery
MP3 CBR 320 Kbps | 200MB + 5% Recovery
Genre: Jazz-Funk, Fusion, Smooth Jazz
Joe Sample - Roles (1987) {MCA}

One of the many jazzmen who started out playing hard bop but went electric during the fusion era, Joe Sample was, in the late ’50s, a founding member of the Jazz Crusaders along with trombonist Wayne Henderson, tenor saxman Wilton Felder, and drummer Stix Hooper. The Crusaders’ debt to Art Blakey’s Jazz Messengers wasn’t hard to miss – except that the L.A.-based unit had no trumpeter, and became known for its unique tenor/trombone front line. Sample, a hard-swinging player who could handle chordal and modal/scalar improvisation equally well, stuck to the acoustic piano during the Crusaders’ early years – but would place greater emphasis on electric keyboards when the band turned to jazz-funk in the early ’70s and dropped "Jazz" from its name. Though he’d recorded as a trio pianist on 1969’s obscure Fancy Dance, 1978’s Rainbow Seeker was often described as his first album as a leader. In contrast to the gritty music the Crusaders became known for, Sample’s own albums on MCA and, later, Warner Bros. and PRA generally favored a very lyrical and introspective jazz-pop approach. Sample died of mesothelioma in September 2014 in Houston, Texas at the age of 75. In 2015, Sample’s holiday-themed collaboration with vocalist India.Arie, Christmas with Friends, was posthumously released.

Track List
01. Woman You’re Drivin’ Me Mad
02. The Gifted
03. Friends And Lovers
04. Ego Mania Mambo
05. Gentle Men
06. Fortune Hunter
07. Ship Of Fools
08. Passionist

musicians
Joe Sample – acoustic piano, keyboards
Lenny Castro – percussion
Bass – Abraham Laboriel – bass
Edward Sonny Emory III- drums
Dean Parks – guitar
Rick Zunigar – guitar
Sal Marquez – trumpet
Bobby Hutcherson – vibes

Produced by Joe Sample and Wilton Felder

EAC Logfile
Exact Audio Copy V1.0 beta 3 from 29. August 2011

EAC extraction logfile from 9. February 2017, 17:13

Joe Sample / Roles

Used drive : MATSHITADVD+-RW SW830 Adapter: 1 ID: 0

Read mode : Secure
Utilize accurate stream : Yes
Defeat audio cache : Yes
Make use of C2 pointers : No

Read offset correction : 6
Overread into Lead-In and Lead-Out : No
Fill up missing offset samples with silence : Yes
Delete leading and trailing silent blocks : No
Null samples used in CRC calculations : Yes
Used interface : Native Win32 interface for Win NT & 2000
Gap handling : Appended to previous track

Used output format : User Defined Encoder
Selected bitrate : 896 kBit/s
Quality : High
Add ID3 tag : No
Command line compressor : C:Program Files (x86)Exact Audio CopyFlacflac.exe
Additional command line options : C:Program Files (x86)Exact Audio CopyFLACFLAC.EXE
Additional command line options : -8 -V -T "ARTIST=%artist%" -T "TITLE=%title%" -T "ALBUM=%albumtitle%" -T "DATE=%year%" -T "TRACKNUMBER=%tracknr%" -T "TOTALTRACKS=%numtracks%" -T "GENRE=%genre%" -T "ALBUMARTIST=%albumartist%" -T "ALBUM ARTIST=%albumartist%" -T "COMMENT=EAC Secure Mode, Test & Copy, AccurateRip, FLAC -8" %source%

TOC of the extracted CD

Track | Start | Length | Start sector | End sector
––––––––––––––––––––––––––––-
1 | 0:00.00 | 6:11.67 | 0 | 27891
2 | 6:11.67 | 4:49.03 | 27892 | 49569
3 | 11:00.70 | 5:45.00 | 49570 | 75444
4 | 16:45.70 | 6:45.70 | 75445 | 105889
5 | 23:31.65 | 4:27.42 | 105890 | 125956
6 | 27:59.32 | 6:24.63 | 125957 | 154819
7 | 34:24.20 | 6:01.07 | 154820 | 181901
8 | 40:25.27 | 7:35.73 | 181902 | 216099

Track 1

Filename C:Joe Sample – Roles (1987) [FLAC]1 – Woman You’re Drivin’ Me Mad.wav

Pre-gap length 0:00:02.00

Peak level 87.0 %
Extraction speed 6.1 X
Track quality 100.0 %
Test CRC B467E646
Copy CRC B467E646
Accurately ripped (confidence 9) [695B2E0F] (AR v2)
Copy OK

Track 2

Filename C:Joe Sample – Roles (1987) [FLAC]2 – The Gifted.wav

Pre-gap length 0:00:01.20

Peak level 81.2 %
Extraction speed 6.2 X
Track quality 100.0 %
Test CRC 3C31AEFB
Copy CRC 3C31AEFB
Accurately ripped (confidence 9) [523202FE] (AR v2)
Copy OK

Track 3

Filename C:Joe Sample – Roles (1987) [FLAC]3 – Friends And Lovers.wav

Pre-gap length 0:00:01.30

Peak level 71.9 %
Extraction speed 6.9 X
Track quality 100.0 %
Test CRC 683E2D24
Copy CRC 683E2D24
Accurately ripped (confidence 9) [AA3F75C0] (AR v2)
Copy OK

Track 4

Filename C:Joe Sample – Roles (1987) [FLAC]4 – Ego Mania Mambo.wav

Pre-gap length 0:00:01.60

Peak level 82.2 %
Extraction speed 6.2 X
Track quality 100.0 %
Test CRC 7297C907
Copy CRC 7297C907
Accurately ripped (confidence 9) [1B40749C] (AR v2)
Copy OK

Track 5

Filename C:Joe Sample – Roles (1987) [FLAC]5 – Gentle Men.wav

Pre-gap length 0:00:01.35

Peak level 81.9 %
Extraction speed 7.1 X
Track quality 99.9 %
Test CRC FC69CBDF
Copy CRC FC69CBDF
Accurately ripped (confidence 9) [1C4CCA91] (AR v2)
Copy OK

Track 6

Filename C:Joe Sample – Roles (1987) [FLAC]6 – Fortune Hunter.wav

Pre-gap length 0:00:01.40

Peak level 87.0 %
Extraction speed 6.9 X
Track quality 100.0 %
Test CRC CC3A2415
Copy CRC CC3A2415
Accurately ripped (confidence 9) [4DA13D4F] (AR v2)
Copy OK

Track 7

Filename C:Joe Sample – Roles (1987) [FLAC]7 – Ship Of Fools.wav

Pre-gap length 0:00:00.28

Peak level 87.0 %
Extraction speed 8.2 X
Track quality 100.0 %
Test CRC 05A5C388
Copy CRC 05A5C388
Accurately ripped (confidence 9) [5B8374B1] (AR v2)
Copy OK

Track 8

Filename C:Joe Sample – Roles (1987) [FLAC]8 – Passionist.wav

Pre-gap length 0:00:01.55

Peak level 87.0 %
Extraction speed 8.8 X
Track quality 100.0 %
Test CRC 6D5DD6B2
Copy CRC 6D5DD6B2
Accurately ripped (confidence 9) [DC1FB3CA] (AR v2)
Copy OK

All tracks accurately ripped

No errors occurred

End of status report

==== Log checksum 352838AD27C5F27E44695B97242962BA1D0B9F7E4F66D5F4E7E46A1A06F9822A ====

Dynamic Range Analysis
––––––––––––––––––––––––––––––––––––––––
Analyzed: Joe Sample / Roles
––––––––––––––––––––––––––––––––––––––––

DR Peak RMS Duration Track
––––––––––––––––––––––––––––––––––––––––
DR15 -1.20 dB -19.65 dB 6:12 01-Woman You’re Drivin’ Me Mad
DR15 -1.80 dB -19.48 dB 4:49 02-The Gifted
DR13 -2.86 dB -19.58 dB 5:45 03-Friends And Lovers
DR14 -1.70 dB -18.74 dB 6:46 04-Ego Mania Mambo
DR15 -1.73 dB -20.86 dB 4:28 05-Gentle Men
DR16 -1.20 dB -18.94 dB 6:25 06-Fortune Hunter
DR16 -1.20 dB -18.98 dB 6:01 07-Ship Of Fools
DR16 -1.20 dB -21.58 dB 7:36 08-Passionist
––––––––––––––––––––––––––––––––––––––––

Number of tracks: 8
Official DR value: DR15

Samplerate: 44100 Hz
Channels: 2
Bits per sample: 16
Bitrate: 767 kbps
Codec: FLAC
================================================================================

Joe Sample - Roles (1987) {MCA}
Joe Sample - Roles (1987) {MCA}
Joe Sample - Roles (1987) {MCA}

Joe Sample – Roles (1987) {MCA} Download, Warez, DDL, Free, Full Album, Torrent, Legal.

Download