Joe Brown – The Ukulele Album (2012) [2013, 2CD Deluxe Edition] | ViralVideoPk

Daily Dose of Free Downloads

Joe Brown – The Ukulele Album (2012) [2013, 2CD Deluxe Edition]

Download

Joe Brown - The Ukulele Album (2012) [2013, 2CD Deluxe Edition]

Joe Brown – The Ukulele Album (2012) [2013, 2CD Deluxe Edition]
Pop/Rock, Folk Rock | EAC Rip | FLAC, Img+CUE+LOG+Scans-600dpi (JPEG) | 01:47:59 h | 779,82 Mb
Label: Absolute / Universal Music (EU) | Released: 2013-10-21 (2012-11-05)
Joe Brown - The Ukulele Album (2012) [2013, 2CD Deluxe Edition]

Singer and guitarist Joe Brown demonstrates his supreme uke skills on this definitive album. The deluxe edition features new studio recordings not found on the original album and comes with a special live CD.

Joe Brown - The Ukulele Album (2012) [2013, 2CD Deluxe Edition]

Release of this album: 2012, November, 5 [CD Joe Brown Productions, Cat.# UGCD 008, UK]
Release of this CD: 2013, October, 21 [CD Absolute / Universal Music (EU), Cat.# UGCD 009 / EAN: 5037300786636]
℗© 2011 Joe Brown Productions Ltd.
Brought to you by Absolute via Universal
Made in the U.K.

Credits:
Producer, Arranged By, Mixed By – Pete Brown

Tracklist:

Disc 1 – STUDIO

01. When I’m Dead and Gone (03:40)
(Gallagher & Lyle)
02. Mr Blue Sky (02:55)
(Jeff Lynne)
03. Tickle My Heart (02:37)
(Roger Cook & Joe Brown)
04. I’m Not in Love (04:08)
(Gouldman & Stewart)
05. I’ll See You in My Dreams (03:08)
(Gus Kahn & Isham Jones)
06. Hula Girl (03:05)
(Sol Hoopi)
07. You’ve Got Your Troubles (03:32)
(Cook & Greenaway)
08. Pinball Wizard (03:19)
(Pete Townshend)
09. When I’m Cleaning Windows (02:13)
(Cliffe & Formby)
10. I Like Ukuleles (02:08)
(J. Brown & P. Brown)
11. The Ace of Spades (03:20)
(Clarke & Kilminster)
12. There’s No Pleasing You (03:41)
(Hodges & Peackock)
13. Where Were You Last Night (03:07)
(Dylan / Harrison / Lynne / Petty)
14. I Like You (03:19)
(Sam Koki & Andy Iona Long)
15. I Like Bananas (02:49)
(Chris Yacich)

Bonus Tracks:
16. Honey Pie (02:44)
(John Lennon / Paul McCartney)
17. Price Tag (03:14)
(Lukasz Gottwald & Jessica Cornish)
18. Grandad Style (04:06)
(Jai Sang Park & Keon Hung You)
19. Bad Guys (02:12)
(Paul H. Williams)

Disc 2 – LIVE

01. Big Rock Candy Mountain (03:09)
(Harry Kirby McClintock)
02. Lay Down Sally (04:11)
(Eric Clapton)
03. That’s What Love Will Do (02:21)
(Trevor Edward Peacock)
04. Henry VIII (02:28)
(Trad arr. Joe Brown)
05. Picture of You (02:58)
(Peter Oakmam & John Beveridge)
06. I Still Haven’t Found What I’m Looking for (04:24)
(Adam Clayton)
07. The Ace of Spades (03:30)
(Clarke & Kilminster)
08. Pinball Wizard (03:24)
(Pete Townshend)
09. Any Road (03:58)
(George Harrison)
10. Killing the Blues (03:54)
(Jon Salley)
11. Souvenir D’alvito (02:53)
(A. D’Avanzo)
12. Sea of Heartbreak (04:03)
(Hal David & Paul Hampton)
13. Hava Nagila (03:17)
(Trad arr. Joe Brown)
14. Ain’t Too Old (04:18)
(Joe Brown & Pete Brown)

EAC log CD1
Exact Audio Copy V1.3 from 2. September 2016

EAC extraction logfile from 22. December 2016, 13:51

Joe Brown / The Ukulele Album Deluxe Edition CD1

Used drive : ATAPI iHAS122 C Adapter: 1 ID: 0

Read mode : Secure
Utilize accurate stream : Yes
Defeat audio cache : Yes
Make use of C2 pointers : No

Read offset correction : 6
Overread into Lead-In and Lead-Out : No
Fill up missing offset samples with silence : Yes
Delete leading and trailing silent blocks : No
Null samples used in CRC calculations : Yes
Used interface : Native Win32 interface for Win NT & 2000

Used output format : Internal WAV Routines
Sample format : 44.100 Hz; 16 Bit; Stereo

TOC of the extracted CD

Track | Start | Length | Start sector | End sector
––––––––––––––––––––––––––––-
1 | 0:00.00 | 3:40.00 | 0 | 16499
2 | 3:40.00 | 2:55.15 | 16500 | 29639
3 | 6:35.15 | 2:36.54 | 29640 | 41393
4 | 9:11.69 | 4:07.48 | 41394 | 59966
5 | 13:19.42 | 3:07.68 | 59967 | 74059
6 | 16:27.35 | 3:04.47 | 74060 | 87906
7 | 19:32.07 | 3:31.43 | 87907 | 103774
8 | 23:03.50 | 3:19.11 | 103775 | 118710
9 | 26:22.61 | 2:13.10 | 118711 | 128695
10 | 28:35.71 | 2:08.01 | 128696 | 138296
11 | 30:43.72 | 3:20.26 | 138297 | 153322
12 | 34:04.23 | 3:40.52 | 153323 | 169874
13 | 37:45.00 | 3:06.44 | 169875 | 183868
14 | 40:51.44 | 3:19.02 | 183869 | 198795
15 | 44:10.46 | 2:49.05 | 198796 | 211475
16 | 46:59.51 | 2:43.44 | 211476 | 223744
17 | 49:43.20 | 3:13.42 | 223745 | 238261
18 | 52:56.62 | 4:05.38 | 238262 | 256674
19 | 57:02.25 | 2:12.14 | 256675 | 266588

Range status and errors

Selected range

Filename C:UsersArturDesktopJoe Brown – The Ukulele Album Deluxe Edition CD1.wav

Peak level 97.7 %
Extraction speed 8.2 X
Range quality 100.0 %
Test CRC 1C886F6D
Copy CRC 1C886F6D
Copy OK

No errors occurred

End of status report

–– CUETools DB Plugin V2.1.6

[CTDB TOCID: u4hBTGz1hzmNMezoE0r2YorcIuo-] found
Submit result: u4hBTGz1hzmNMezoE0r2YorcIuo- has been confirmed
Track | CTDB Status
1 | (1/1) Accurately ripped
2 | (1/1) Accurately ripped
3 | (1/1) Accurately ripped
4 | (1/1) Accurately ripped
5 | (1/1) Accurately ripped
6 | (1/1) Accurately ripped
7 | (1/1) Accurately ripped
8 | (1/1) Accurately ripped
9 | (1/1) Accurately ripped
10 | (1/1) Accurately ripped
11 | (1/1) Accurately ripped
12 | (1/1) Accurately ripped
13 | (1/1) Accurately ripped
14 | (1/1) Accurately ripped
15 | (1/1) Accurately ripped
16 | (1/1) Accurately ripped
17 | (1/1) Accurately ripped
18 | (1/1) Accurately ripped
19 | (1/1) Accurately ripped

==== Log checksum E774C21AD4858DA3FF3982CC9B4702981F4159F738EECAB4B5D394E009C22FA5 ====

Dynamic Range Meter log CD1
––––––––––––––––––––––––––––––––––––––––
Analyzed: Joe Brown / The Ukulele Album Deluxe Edition CD1
––––––––––––––––––––––––––––––––––––––––

DR Peak RMS Duration Track
––––––––––––––––––––––––––––––––––––––––
DR6 -0.40 dB -8.35 dB 3:40 01-When I’m Dead and Gone
DR7 -0.40 dB -8.68 dB 2:55 02-Mr Blue Sky
DR7 -0.40 dB -9.08 dB 2:37 03-Tickle My Heart
DR7 -0.40 dB -10.27 dB 4:08 04-I’m Not in Love
DR8 -0.40 dB -9.74 dB 3:08 05-I’ll See You in My Dreams
DR8 -0.40 dB -9.68 dB 3:05 06-Hula Girl
DR8 -0.40 dB -9.88 dB 3:32 07-You’ve Got Your Troubles
DR6 -0.40 dB -7.50 dB 3:19 08-Pinball Wizard
DR7 -0.40 dB -8.22 dB 2:13 09-When I’m Cleaning Windows
DR6 -0.40 dB -8.25 dB 2:08 10-I Like Ukuleles
DR6 -0.40 dB -7.88 dB 3:20 11-The Ace of Spades
DR8 -0.40 dB -9.44 dB 3:41 12-There’e No Pleasing You
DR6 -0.40 dB -8.86 dB 3:07 13-Where Were You Last Night
DR6 -0.40 dB -7.69 dB 3:19 14-I Like You
DR7 -0.40 dB -8.79 dB 2:49 15-I Like Bananas
DR7 -0.31 dB -9.68 dB 2:44 16-Honey Pie
DR7 -0.20 dB -8.76 dB 3:14 17-Price Tag
DR7 -0.20 dB -8.45 dB 4:06 18-Grandad Style
DR7 -0.20 dB -9.42 dB 2:12 19-Bad Guys
––––––––––––––––––––––––––––––––––––––––

Number of tracks: 19
Official DR value: DR7

Samplerate: 44100 Hz
Channels: 2
Bits per sample: 16
Bitrate: 908 kbps
Codec: FLAC
================================================================================

EAC log CD2
Exact Audio Copy V1.3 from 2. September 2016

EAC extraction logfile from 24. December 2016, 14:00

Joe Brown / The Ukulele Album Deluxe Edition CD2

Used drive : ATAPI iHAS122 C Adapter: 1 ID: 0

Read mode : Secure
Utilize accurate stream : Yes
Defeat audio cache : Yes
Make use of C2 pointers : No

Read offset correction : 6
Overread into Lead-In and Lead-Out : No
Fill up missing offset samples with silence : Yes
Delete leading and trailing silent blocks : No
Null samples used in CRC calculations : Yes
Used interface : Native Win32 interface for Win NT & 2000

Used output format : Internal WAV Routines
Sample format : 44.100 Hz; 16 Bit; Stereo

TOC of the extracted CD

Track | Start | Length | Start sector | End sector
––––––––––––––––––––––––––––-
1 | 0:00.00 | 3:09.00 | 0 | 14174
2 | 3:09.00 | 4:10.50 | 14175 | 32974
3 | 7:19.50 | 2:20.48 | 32975 | 43522
4 | 9:40.23 | 2:27.50 | 43523 | 54597
5 | 12:07.73 | 2:57.74 | 54598 | 67946
6 | 15:05.72 | 4:23.43 | 67947 | 87714
7 | 19:29.40 | 3:29.66 | 87715 | 103455
8 | 22:59.31 | 3:23.41 | 103456 | 118721
9 | 26:22.72 | 3:57.39 | 118722 | 136535
10 | 30:20.36 | 3:54.10 | 136536 | 154095
11 | 34:14.46 | 2:52.49 | 154096 | 167044
12 | 37:07.20 | 4:03.03 | 167045 | 185272
13 | 41:10.23 | 3:17.30 | 185273 | 200077
14 | 44:27.53 | 4:17.51 | 200078 | 219403

Range status and errors

Selected range

Filename C:UsersArturDesktopJoe Brown – The Ukulele Album Deluxe Edition CD2.wav

Peak level 96.6 %
Extraction speed 7.8 X
Range quality 100.0 %
Test CRC FFFE3380
Copy CRC FFFE3380
Copy OK

No errors occurred

End of status report

–– CUETools DB Plugin V2.1.6

[CTDB TOCID: elX9MIg5NLpA3kSUzhkCpSwQV40-] found
Submit result: elX9MIg5NLpA3kSUzhkCpSwQV40- has been confirmed
Track | CTDB Status
1 | (1/1) Accurately ripped
2 | (1/1) Accurately ripped
3 | (1/1) Accurately ripped
4 | (1/1) Accurately ripped
5 | (1/1) Accurately ripped
6 | (1/1) Accurately ripped
7 | (1/1) Accurately ripped
8 | (1/1) Accurately ripped
9 | (1/1) Accurately ripped
10 | (1/1) Accurately ripped
11 | (1/1) Accurately ripped
12 | (1/1) Accurately ripped
13 | (1/1) Accurately ripped
14 | (1/1) Accurately ripped

==== Log checksum B6552492A748A80EEE3D28654B1BCE8347635C0BEC8913D425E87A6D51EED947 ====

Dynamic Range Meter log CD2
––––––––––––––––––––––––––––––––––––––––
Analyzed: Joe Brown / The Ukulele Album Deluxe Edition CD2
––––––––––––––––––––––––––––––––––––––––

DR Peak RMS Duration Track
––––––––––––––––––––––––––––––––––––––––
DR7 -0.30 dB -10.22 dB 3:09 01-Big Rock Candy Mountain [Live]
DR8 -0.30 dB -9.97 dB 4:11 02-Lay Down Sally [Live]
DR8 -0.30 dB -9.66 dB 2:21 03-Thats What Love Will Do [Live]
DR8 -0.30 dB -9.61 dB 2:28 04-Henry VIII [Live]
DR7 -0.30 dB -9.82 dB 2:58 05-I Still Havent Found What Im Looking For [Live]
DR8 -0.30 dB -10.24 dB 4:24 06-Picture Of You [Live]
DR9 -0.30 dB -10.46 dB 3:30 07-Ace of Spades [Live]
DR7 -0.30 dB -9.19 dB 3:24 08-Pinball Wizard [Live]
DR8 -0.30 dB -9.50 dB 3:58 09-Any Road [Live]
DR10 -0.30 dB -13.31 dB 3:54 10-Killing The Blues [Live]
DR12 -0.30 dB -15.76 dB 2:53 11-Souvenir Dalvito [Live]
DR8 -0.30 dB -10.27 dB 4:03 12-Sea Of Heartbreak [Live]
DR8 -0.30 dB -9.57 dB 3:17 13-Hava Nagila [Live]
DR7 -0.30 dB -8.32 dB 4:18 14-Aint Too Old [Live]
––––––––––––––––––––––––––––––––––––––––

Number of tracks: 14
Official DR value: DR8

Samplerate: 44100 Hz
Channels: 2
Bits per sample: 16
Bitrate: 968 kbps
Codec: FLAC
================================================================================

All thanks to London

Joe Brown – The Ukulele Album (2012) [2013, 2CD Deluxe Edition] Download, Warez, DDL, Free, Full Album, Torrent, Legal.

Download


  • Recent Posts

  • Recent Tags