Joe Beck – Nature Boy (1968) {Verve Forecast}

Download
Joe Beck - Nature Boy (1968) {Verve Forecast}

Joe Beck – Nature Boy (1968) {Verve Forecast}
EZ CD Rip | FLAC Image | Cue+Log | Full Scans 600dpi | 338MB + 5% Recovery
MP3 CBR 320 Kbps | 146MB + 5% Recovery
Genre: Jazz-Rock

Originally released 1969 on Verve this is a truly lost jewel, released for the first time on CD. Joe Beck, one of the most famous jazz guitar players, recorded this album with fellow Donald McDonald on drums and among guest musicians is Danny Whitten, guitar player of Crazy Horse before they worked together with Neil Young. On this album Beck, influenced by Eric Clapton and Jimi Hendrix, created a song-oriented psychedelic rock style with slightly jazz influences showing his remarkable guitar skills, including some fine Wah-Wah treatments. Really great stuff. CD comes with informative booklet.

Track List
1. Nature Boy
2. Spoon’s Caress
3. Let Me Go
4. Come Back: Visions Without You
5. Maybe
6. No More Blues
7. Goodbye L.A.
8. Please Believe Me
9. Ain’t No Use In Talking

musicians
Joe Beck – lead guitar, bass, vocals
Randy Brecker – trumpet
Donald MacDonald – drums, conga drum, tambourine
Danny Whitten – rhythm guitar, vocal
Don Payne – bass

Produced by Joe Beck

EZ CD Logfile
EZ CD Audio Converter 5.0.5 32-bit (Dec 23 2016)

Log creation date: Jan 7 2017 17:01

J:Uploads-MariosJoe Beck – Nature Boy 1968

Device: [ D: ] _NEC DVD_RW ND-3520A 1.04

Profile : Disc Image
Read mode : Normal
C2 pointers : Disabled
AccurateCDDA : Enabled
Software synchronization : Disabled
Drive read cache : Enabled
Verify audio : Disabled
Drive spin-up : Disabled
Sample offset : 0

Calculate ReplayGain : Enabled

Output format : .flac | Free Lossless Audio Codec
Encoder : FLAC 1.3.1
Bit depth : Auto
Channels : Auto
Sample rate : Auto
Compression level : 8

Track Start Length Start sector End sector
––––––––––––––––––––––––––––––-
[X] 01 00:00.00 05:31.66 0 24890
[X] 02 05:31.66 03:16.29 24891 39619
[X] 03 08:48.20 03:43.44 39620 56388
[X] 04 12:31.64 06:04.49 56389 83737
[X] 05 18:36.38 03:20.68 83738 98805
[X] 06 21:57.31 06:26.14 98806 127769
[X] 07 28:23.45 06:22.02 127770 156421
[X] 08 34:45.47 05:27.37 156422 180983
[X] 09 40:13.09 05:33.35 180984 205993
––––––––––––––––––––––––––––––-

Summary
–––-

9 total tracks
9 copied successfully
0 copied with errors
0 failed

Track Status CRC Filename
–––––––––––––––––––-
1 Success 2AFB0FBE "Joe Beck – Nature Boy.flac"
2 Success B8DE2A33 "Joe Beck – Nature Boy.flac"
3 Success 8BDFA321 "Joe Beck – Nature Boy.flac"
4 Success 7960FA28 "Joe Beck – Nature Boy.flac"
5 Success BE027F35 "Joe Beck – Nature Boy.flac"
6 Success 1312E6AE "Joe Beck – Nature Boy.flac"
7 Success 7FF7D4C4 "Joe Beck – Nature Boy.flac"
8 Success A5B62768 "Joe Beck – Nature Boy.flac"
9 Success 89B3BF97 "Joe Beck – Nature Boy.flac"

Details
–––-

Track 1

Filename "Joe Beck – Nature Boy.flac"

CRC : 2AFB0FBE

Finished successfully

Track 2

Filename "Joe Beck – Nature Boy.flac"

CRC : B8DE2A33

Finished successfully

Track 3

Filename "Joe Beck – Nature Boy.flac"

CRC : 8BDFA321

Finished successfully

Track 4

Filename "Joe Beck – Nature Boy.flac"

CRC : 7960FA28

Finished successfully

Track 5

Filename "Joe Beck – Nature Boy.flac"

CRC : BE027F35

Finished successfully

Track 6

Filename "Joe Beck – Nature Boy.flac"

CRC : 1312E6AE

Finished successfully

Track 7

Filename "Joe Beck – Nature Boy.flac"

CRC : 7FF7D4C4

Finished successfully

Track 8

Filename "Joe Beck – Nature Boy.flac"

CRC : A5B62768

Finished successfully

Track 9

Filename "Joe Beck – Nature Boy.flac"

CRC : 89B3BF97

Finished successfully

Dynamic Range Analysis
––––––––––––––––––––––––––––––––––––––––
Analyzed: Joe Beck / Nature Boy
––––––––––––––––––––––––––––––––––––––––

DR Peak RMS Duration Track
––––––––––––––––––––––––––––––––––––––––
DR8 -0.51 dB -11.04 dB 5:32 01-Nature Boy
DR9 -0.50 dB -10.89 dB 3:16 02-Spoon’s Caress
DR7 -0.51 dB -8.89 dB 3:44 03-Let Me Go
DR8 -0.51 dB -11.31 dB 6:05 04-Come Back: Visions Without You
DR6 -0.50 dB -8.00 dB 3:21 05-Maybe
DR8 -0.51 dB -10.72 dB 6:26 06-No More Blues
DR6 -0.50 dB -8.58 dB 6:22 07-Goodbye L.A.
DR10 -0.51 dB -13.78 dB 5:27 08-Please Believe Me
DR8 -0.50 dB -10.10 dB 5:33 09-Ain’t No Use In Talking
––––––––––––––––––––––––––––––––––––––––

Number of tracks: 9
Official DR value: DR8

Samplerate: 44100 Hz
Channels: 2
Bits per sample: 16
Bitrate: 909 kbps
Codec: FLAC
================================================================================

Joe Beck - Nature Boy (1968) {Verve Forecast}
Joe Beck - Nature Boy (1968) {Verve Forecast}
Joe Beck - Nature Boy (1968) {Verve Forecast}
Thanks to the original ripper

Joe Beck – Nature Boy (1968) {Verve Forecast} Download, Warez, DDL, Free, Full Album, Torrent, Legal.

Download