Jocelyn Pook & VA – Desh (2012)

Download
Jocelyn Pook & VA - Desh (2012)

Jocelyn Pook & VA – Desh (2012)
EAC | FLAC (Tracks) + cue.+log ~ 281 Mb | Mp3, CBR320 kbps ~ 121 Mb | Scans ~ 43 Mb
Soundtrack, World Music, Ethnic Fusion | Label: Jocelyn Pook Ltd. | # POOK MUSIC 01 | 00:53:03

Famed for her film score to Stanley Kubrick’s Eyes Wide Shut, Jocelyn Pook is a highly versatile composer who has written extensively for film, television, the theatre, and the concert hall. She has worked with some of the world’s leading directors, musicians, artists and arts institutions including Stanley Kubrick, Martin Scorsese, the Royal Opera House, BBC Proms, Andrew Motion, Peter Gabriel, Massive Attack, and Laurie Anderson. DESH was composed to accompany Akram Khan’s theatre work of the same name. The music translates into sound the sights, energy and colour Pook experienced into fragile pieces scored for chamber ensemble as well as pieces harnessing the power of full orchestra.

~ Jocelyn Pook at Allmusic
~ Jocelyn Pook Website
~ Jocelyn Pook at Wiki

Viola, violin, piano – Jocelyn Pook

Vocals:
Melanie Pappenheim (1, 6, 8), Sohini Alam (2, 7-8)
Natacha Atlas (6), Labik Kamal (4), Jeremy Schonfield (1)
Tanja Tzarovska (1), Jocelyn Pook (4-6, 8)

Voice Actors:
Akram Khan (2, 4, 6, 8, 9), Eesha Desai (2, 4, 6), Leesa Gazi (4)
Sreya Andrisha Gazi (8), Mosharaf Khan (9)

Cello – Sophie Harris
Dotara – Labik Kamal
Percussion – Dragan Aleksic

Recorded By, Mixed By – Steve Parr
Bulgarian Orchestra recorded at Graffiti Studio, Sofia.

Tracklist:

01. Hallelujah (4:36)
02. Metallic Sonata (7:07)
03. Honey Bee Story (8:14)
04. Remembering Noor (6:48)
05. Teenage Years (3:51)
06. Ave Maria (5:22)
07. Ami Opar (3:17)
08. Bleeding Soles (10:25)
09. Storm Engine (3:23)

EAC log
Exact Audio Copy V1.0 beta 3 from 29. August 2011

EAC extraction logfile from 9. May 2014, 17:54

Jocelyn Pook / Desh

Used drive : HL-DT-STDVD-ROM GDR8161B Adapter: 4 ID: 1

Read mode : Secure
Utilize accurate stream : Yes
Defeat audio cache : Yes
Make use of C2 pointers : No

Read offset correction : 102
Overread into Lead-In and Lead-Out : No
Fill up missing offset samples with silence : Yes
Delete leading and trailing silent blocks : No
Null samples used in CRC calculations : Yes
Used interface : Native Win32 interface for Win NT & 2000
Gap handling : Appended to previous track

Used output format : User Defined Encoder
Selected bitrate : 896 kBit/s
Quality : High
Add ID3 tag : No
Command line compressor : C:Program Files (x86)Exact Audio CopyFlacflac.exe
Additional command line options : -8 -V -T "ARTIST=%artist%" -T "TITLE=%title%" -T "ALBUM=%albumtitle%" -T "DATE=%year%" -T "TRACKNUMBER=%tracknr%" -T "TOTALTRACKS=%numtracks%" -T "GENRE=%genre%" -T "ALBUMARTIST=%albumartist%" -T "ALBUM ARTIST=%albumartist%" -T "COMMENT=EAC Secure Mode, Test & Copy, AccurateRip, FLAC -8" %source%

TOC of the extracted CD

Track | Start | Length | Start sector | End sector
––––––––––––––––––––––––––––-
1 | 0:00.00 | 4:35.74 | 0 | 20698
2 | 4:35.74 | 7:06.73 | 20699 | 52721
3 | 11:42.72 | 8:14.05 | 52722 | 89776
4 | 19:57.02 | 6:48.19 | 89777 | 120395
5 | 26:45.21 | 3:51.28 | 120396 | 137748
6 | 30:36.49 | 5:22.16 | 137749 | 161914
7 | 35:58.65 | 3:16.43 | 161915 | 176657
8 | 39:15.33 | 10:24.52 | 176658 | 223509
9 | 49:40.10 | 3:22.52 | 223510 | 238711

Track 1

Filename C:UserspieropiccoDocumentsJocelyn1 – Hallelujah.wav

Pre-gap length 0:00:02.00

Peak level 100.0 %
Extraction speed 5.1 X
Track quality 100.0 %
Test CRC 05FD64C8
Copy CRC 05FD64C8
Track not present in AccurateRip database
Copy OK

Track 2

Filename C:UserspieropiccoDocumentsJocelyn2 – Metallic Sonata.wav

Pre-gap length 0:00:01.74

Peak level 100.0 %
Extraction speed 6.1 X
Track quality 100.0 %
Test CRC E2A30071
Copy CRC E2A30071
Track not present in AccurateRip database
Copy OK

Track 3

Filename C:UserspieropiccoDocumentsJocelyn3 – Honey Bee Story.wav

Pre-gap length 0:00:00.33

Peak level 98.6 %
Extraction speed 7.1 X
Track quality 100.0 %
Test CRC 19393B0C
Copy CRC 19393B0C
Track not present in AccurateRip database
Copy OK

Track 4

Filename C:UserspieropiccoDocumentsJocelyn4 – Remembering Noor.wav

Peak level 100.0 %
Extraction speed 7.8 X
Track quality 100.0 %
Test CRC B62CBE48
Copy CRC B62CBE48
Track not present in AccurateRip database
Copy OK

Track 5

Filename C:UserspieropiccoDocumentsJocelyn5 – Teenage Years.wav

Pre-gap length 0:00:02.47

Peak level 88.9 %
Extraction speed 6.7 X
Track quality 99.9 %
Test CRC 6C2ADD76
Copy CRC 6C2ADD76
Track not present in AccurateRip database
Copy OK

Track 6

Filename C:UserspieropiccoDocumentsJocelyn6 – Ave Maria.wav

Peak level 100.0 %
Extraction speed 8.5 X
Track quality 100.0 %
Test CRC E56B42B4
Copy CRC E56B42B4
Track not present in AccurateRip database
Copy OK

Track 7

Filename C:UserspieropiccoDocumentsJocelyn7 – Ami Opar.wav

Pre-gap length 0:00:02.47

Peak level 72.2 %
Extraction speed 8.2 X
Track quality 100.0 %
Test CRC 49321AA8
Copy CRC 49321AA8
Track not present in AccurateRip database
Copy OK

Track 8

Filename C:UserspieropiccoDocumentsJocelyn8 – Bleeding Soles.wav

Pre-gap length 0:00:00.56

Peak level 100.0 %
Extraction speed 9.8 X
Track quality 100.0 %
Test CRC F9701636
Copy CRC F9701636
Track not present in AccurateRip database
Copy OK

Track 9

Filename C:UserspieropiccoDocumentsJocelyn9 – Storm Engine.wav

Pre-gap length 0:00:00.46

Peak level 100.0 %
Extraction speed 9.2 X
Track quality 100.0 %
Test CRC 074CDD34
Copy CRC 074CDD34
Track not present in AccurateRip database
Copy OK

None of the tracks are present in the AccurateRip database

No errors occurred

End of status report

==== Log checksum 06896B8787350C47F2B36ACE51103D069797A975BECE1B02F9C583004DDF08C4 ====

CUE Tools log
[CUETools log; Date: 28.07.2017 21:24:13; Version: 2.1.4]
[CTDB TOCID: zExn2baOniUp5_lof15UZbm2ATo-] found.
Track | CTDB Status
1 | (4/4) Accurately ripped
2 | (4/4) Accurately ripped
3 | (3/4) Accurately ripped, or (1/4) differs in 5 samples @06:49:07
4 | (4/4) Accurately ripped
5 | (4/4) Accurately ripped
6 | (2/4) Accurately ripped, or (1/4) differs in 4 samples @03:15:66, or (1/4) differs in 3 samples @03:15:66
7 | (4/4) Accurately ripped
8 | (4/4) Accurately ripped
9 | (4/4) Accurately ripped
[AccurateRip ID: 0012a5fa-00884cae-820c6e09] found.
Track [ CRC | V2 ] Status
01 [c1559754|24bb4649] (0+3/3) Accurately ripped
02 [7d73c47e|96523e69] (0+3/3) Accurately ripped
03 [938037dc|cd0e73a9] (0+2/2) Accurately ripped
04 [d8276698|d684c8f0] (0+3/3) Accurately ripped
05 [31441c4d|f81f3bc6] (0+3/3) Accurately ripped
06 [edcd898d|aa79f363] (0+3/3) Accurately ripped
07 [0f8a3743|bfd77a3e] (0+3/3) Accurately ripped
08 [d882adda|7f7eb3c8] (0+3/3) Accurately ripped
09 [8e4e73ea|38994f01] (0+3/3) Accurately ripped

Track Peak [ CRC32 ] [W/O NULL] [ LOG ]
– 100,0 [7FF61FE9] [C48DA4D1]
01 100,0 [05FD64C8] [76ADDC94] CRC32
02 100,0 [E2A30071] [B938C823] CRC32
03 98,6 [19393B0C] [C706EE6E] CRC32
04 100,0 [B62CBE48] [33440CD1] CRC32
05 88,9 [6C2ADD76] [04BBBD00] CRC32
06 100,0 [E56B42B4] [91FD5CE7] CRC32
07 72,2 [49321AA8] [45FA9BC3] CRC32
08 100,0 [F9701636] [639CCD03] CRC32
09 100,0 [074CDD34] [10BB3DCC] CRC32

DR log
foobar2000 1.2 / Dynamic Range Meter 1.1.1
log date: 2017-07-28 21:21:16

––––––––––––––––––––––––––––––––––––––––
Analyzed: Jocelyn Pook / Desh
––––––––––––––––––––––––––––––––––––––––

DR Peak RMS Duration Track
––––––––––––––––––––––––––––––––––––––––
DR9 0.00 dB -11.95 dB 4:36 01-Hallelujah
DR7 0.00 dB -9.17 dB 7:07 02-Metallic Sonata
DR11 -0.12 dB -14.78 dB 8:14 03-Honey Bee Story
DR6 0.00 dB -8.28 dB 6:48 04-Remembering Noor
DR12 -1.02 dB -17.46 dB 3:51 05-Teenage Years
DR9 0.00 dB -10.95 dB 5:22 06-Ave Maria
DR10 -2.82 dB -17.78 dB 3:17 07-Ami Opar
DR7 0.00 dB -10.16 dB 10:25 08-Bleeding Soles
DR7 0.00 dB -10.00 dB 3:23 09-Storm Engine
––––––––––––––––––––––––––––––––––––––––

Number of tracks: 9
Official DR value: DR8

Samplerate: 44100 Hz
Channels: 2
Bits per sample: 16
Bitrate: 761 kbps
Codec: FLAC
================================================================================

Jocelyn Pook & VA - Desh (2012)

Jocelyn Pook & VA - Desh (2012)

All thanks to original uploader

More Movies & Soundtracks in Efgrapha Blog

Jocelyn Pook & VA – Desh (2012) Download, Warez, DDL, Free, Full Album, Torrent, Legal.

Download