Jimmy Thackery And The Drivers – Wide Open (2014)

Download
Jimmy Thackery And The Drivers - Wide Open (2014)

Jimmy Thackery And The Drivers – Wide Open (2014)
EAC Rip | FLAC (Img) + Cue + Log ~ 536 Mb | MP3 CBR320 ~ 204 Mb
Scans Included (JPG, 600 dpi) | RAR 5% Recovery
Modern Electric Blues, Blues Rock | White River Records #WRR1923

This studio CD is an all-original compilation from Thackery that will take you on an emotional journey from primitive foot-stompin’ greazy Blues to dazedreamy harmonic chord guitar instrumentals, to rockin get up out of your chair dance music.

Thackery is a guitar master who has made playing his professional career since a youngster. For over 40 years, he has traveled the world entertaining and creating music for fans in large and small venues, theaters and even Carnegie Hall. His style is Roots Rock, with some gritty, primitive Blues, melodic Hawaiian harmonic chord instrumentals, and rock the room high octane guitar solos. Having played with many legends in the old school blues world, Thackery uses the base of his knowledge to shine with reverence in his own style. The live shows are not for casual chatters, but for ones who are expecting to be mesmerized by a jaw-dropping performance every time. Backed up by his experienced rhythm section, Mark "Bumpy Rhoades" Bumgarner and George "Bam Bam" Sheppard, there is truly immeasurable sound and harmony emanating from the stage with this fine-tuned trio.

Jimmy Thackery And The Drivers - Wide Open (2014)

Official Website | Wiki | Discogs | All Music

***************

Jimmy Thackery And The Drivers - Wide Open (2014)

Jimmy Thackery And The Drivers - Wide Open (2014)

Track List:

01. Change Your Tune [6:54]
02. Minor Step [5:39]
03. Coffee And Chicken [5:56]
04. King Of Livin’ On My Own [3:47]
05. Hard Luck Man [5:47]
06. Shame, Shame, Shame [8:01]
07. You Brush Me Off [6:37]
08. Someone Who’s Cryin’ Tonight [7:03]
09. Keep My Heart From Breakin’ [5:31]
10. Swingin’ Breeze [4:57]
11. Run Like The Wind [6:31]
12. Pondok [5:50]

EAC Log
Exact Audio Copy V1.0 beta 3 from 29. August 2011

Отчёт EAC об извлечении, выполненном 20. июля 2014, 14:37

Jimmy Thackery and the Drivers / Wide Open

Дисковод: PLEXTOR DVDR PX-880SA Adapter: 1 ID: 0

Режим чтения : Достоверность
Использование точного потока : Да
Отключение кэша аудио : Да
Использование указателей C2 : Нет

Коррекция смещения при чтении : 6
Способность читать области Lead-in и Lead-out : Нет
Заполнение пропущенных сэмплов тишиной : Да
Удаление блоков с тишиной в начале и конце : Нет
При вычислениях CRC использовались нулевые сэмплы : Да
Интерфейс : Установленный внешний ASPI-интерфейс

Выходной формат : Пользовательский кодировщик
Выбранный битрейт : 1024 kBit/s
Качество : Высокий
Добавление ID3-тега : Нет
Утилита сжатия : C:Program FilesExact Audio CopyFLACFLAC.EXE
Дополнительные параметры : -10 -V -T "ARTIST=%artist%" -T "ALBUM=%albumtitle%" -T "DATE=%year%" -T "GENRE=%genre%" -T "COMMENT=ripped by izia1956" %source%

TOC извлечённого CD

Трек | Старт | Длительность | Начальный сектор | Конечный сектор
––––––––––––––––––––––––––––––––––-
1 | 0:00.00 | 6:54.26 | 0 | 31075
2 | 6:54.26 | 5:38.60 | 31076 | 56485
3 | 12:33.11 | 5:56.04 | 56486 | 83189
4 | 18:29.15 | 3:47.27 | 83190 | 100241
5 | 22:16.42 | 5:46.67 | 100242 | 126258
6 | 28:03.34 | 8:00.40 | 126259 | 162298
7 | 36:03.74 | 6:37.11 | 162299 | 192084
8 | 42:41.10 | 7:02.70 | 192085 | 223804
9 | 49:44.05 | 5:31.18 | 223805 | 248647
10 | 55:15.23 | 4:56.40 | 248648 | 270887
11 | 60:11.63 | 6:30.44 | 270888 | 300181
12 | 66:42.32 | 5:50.37 | 300182 | 326468

Характеристики диапазона извлечения и сообщения об ошибках

Выбранный диапазон

Имя файла D:BitCometJimmy Thackery and the Drivers – Wide Open (2014)Jimmy Thackery and the Drivers – Wide Open.wav

Пиковый уровень 99.9 %
Скорость извлечения 9.3 X
Качество диапазона 100.0 %
CRC теста C885B79B
CRC копии C885B79B
Копирование… OK

Ошибок не произошло

AccurateRip: сводка

Трек 1 отсутствует в базе данных
Трек 2 отсутствует в базе данных
Трек 3 отсутствует в базе данных
Трек 4 отсутствует в базе данных
Трек 5 отсутствует в базе данных
Трек 6 отсутствует в базе данных
Трек 7 отсутствует в базе данных
Трек 8 отсутствует в базе данных
Трек 9 отсутствует в базе данных
Трек 10 отсутствует в базе данных
Трек 11 отсутствует в базе данных
Трек 12 отсутствует в базе данных

Ни одного трека нет в базе AccurateRip

Конец отчёта

==== Контрольная сумма отчёта 222B457D26ACDEE0FEA9AFA2E65FF71FA81FF2EBB0825FD3F605FCDB51038F37 ====

DR Log
foobar2000 1.2.6 / Dynamic Range Meter 1.1.1
log date: 2017-07-25 11:57:12

––––––––––––––––––––––––––––––––––––––––
Analyzed: Jimmy Thackery and the Drivers / Wide Open
––––––––––––––––––––––––––––––––––––––––

DR Peak RMS Duration Track
––––––––––––––––––––––––––––––––––––––––
DR7 -0.04 dB -8.26 dB 6:54 01-Change Your Tune
DR8 -0.05 dB -9.61 dB 5:39 02-Minor Step
DR7 0.00 dB -8.50 dB 5:56 03-Coffee And Chicken
DR8 -0.55 dB -9.48 dB 3:47 04-King Of Livin’ On My Own
DR5 0.00 dB -6.04 dB 5:47 05-Hard Luck Man
DR8 -0.50 dB -10.35 dB 8:01 06-Shame, Shame, Shame
DR9 -0.07 dB -12.45 dB 6:37 07-You Brush Me Off
DR6 -0.06 dB -8.09 dB 7:03 08-Someone Who’s Cryin’ Tonight
DR5 -0.10 dB -6.32 dB 5:31 09-Keep My Heart From Breakin’
DR6 -1.07 dB -8.35 dB 4:57 10-Swingin’ Breeze
DR9 -1.12 dB -13.02 dB 6:31 11-Run Like The Wind
DR6 0.00 dB -6.84 dB 5:50 12-Pondok
––––––––––––––––––––––––––––––––––––––––

Number of tracks: 12
Official DR value: DR7

Samplerate: 44100 Hz
Channels: 2
Bits per sample: 16
Bitrate: 929 kbps
Codec: FLAC
================================================================================

CUETools Log
[CUETools log; Date: 25.07.2017 11:57:14; Version: 2.1.5]
[CTDB TOCID: 6i1tQ9IOCsYBEDTJFgQZ9XVgbjQ-] found.
Track | CTDB Status
1 | (7/7) Accurately ripped
2 | (7/7) Accurately ripped
3 | (7/7) Accurately ripped
4 | (7/7) Accurately ripped
5 | (7/7) Accurately ripped
6 | (7/7) Accurately ripped
7 | (7/7) Accurately ripped
8 | (7/7) Accurately ripped
9 | (7/7) Accurately ripped
10 | (7/7) Accurately ripped
11 | (6/7) Accurately ripped, or (1/7) differs in 6 samples @04:59:56,05:00:43
12 | (7/7) Accurately ripped
[AccurateRip ID: 00205f9d-012e785a-9f11000c] found.
Track [ CRC | V2 ] Status
01 [3b39378e|05bb4fcb] (0+5/5) Accurately ripped
02 [37f6f478|a00a17f2] (0+5/5) Accurately ripped
03 [39274457|8ea7212a] (0+5/5) Accurately ripped
04 [d21e6ca3|f0294af4] (0+5/5) Accurately ripped
05 [87da5ac5|f551b36d] (0+5/5) Accurately ripped
06 [d4588dba|8c9c2ea0] (0+5/5) Accurately ripped
07 [ea38c046|718d3c4a] (0+5/5) Accurately ripped
08 [3a4b2285|ab731ae7] (0+5/5) Accurately ripped
09 [71ae71e7|fefb0056] (0+5/5) Accurately ripped
10 [028e4cd8|dd751b4e] (0+5/5) Accurately ripped
11 [7758a29e|49f3b33c] (0+5/5) Accurately ripped
12 [d79f6d59|0412953b] (0+5/5) Accurately ripped
Offsetted by -6:
01 [359fde31] (0/5) No match (V2 was not tested)
02 [580be584] (0/5) No match (V2 was not tested)
03 [f90b83d5] (0/5) No match (V2 was not tested)
04 [5360b113] (0/5) No match (V2 was not tested)
05 [6d3a5187] (0/5) No match (V2 was not tested)
06 [34c76b2a] (0/5) No match (V2 was not tested)
07 [768e534e] (0/5) No match (V2 was not tested)
08 [8bd12a97] (0/5) No match (V2 was not tested)
09 [858f9dcb] (0/5) No match (V2 was not tested)
10 [36242232] (0/5) No match (V2 was not tested)
11 [5cfb6d6e] (0/5) No match (V2 was not tested)
12 [e4403e89] (0/5) No match (V2 was not tested)

Track Peak [ CRC32 ] [W/O NULL] [ LOG ]
– 99,9 [C885B79B] [D1213E4A] CRC32
01 99,5 [BCBF2651] [94B1C6D9]
02 99,4 [005C84BB] [06528579]
03 99,9 [E84016E8] [8B5B1C50]
04 93,8 [9265E6C9] [FEACE6F9]
05 99,9 [67E5B1F6] [6FBB5185]
06 94,3 [49FAE738] [E97019E6]
07 99,1 [4C395123] [A35A4B11]
08 99,2 [E219CFA5] [D04365C5]
09 98,8 [26EB39BC] [53828B5F]
10 88,4 [1621A05B] [CCD0E9EC]
11 87,9 [F4F93A4E] [7BF4ACB9]
12 99,9 [6E1AA6A6] [EF874328]

Jimmy Thackery And The Drivers - Wide Open (2014)

All thanks go to izia1956

>>> Jimmy Thackery in my Blog <<<

Download from icerbox.com:

Jimmy Thackery And The Drivers – Wide Open (2014) Download, Warez, DDL, Free, Full Album, Torrent, Legal.

Download