Jimmy Messina – Oasis (1979) [Sony Music MHCP 766, Japan]

Download
Jimmy Messina - Oasis (1979) [Sony Music MHCP 766, Japan]

Jimmy Messina – Oasis (1979)
EAC | Flac(Image) + Cue + Log & MP3 CBR 320Kbps
2006 | Sony Music, MHCP 766 | ~ 275 or 98 Mb | Scans(jpg) -> 57 Mb
Pop, Soft Rock, Latin, Funk/Soul

After producing and playing some of the best music of the 60’s and 70’s, Jim Messina kept going with his solo recording career. All the talent and technique that made Buffalo Springfield, Poco and Loggins and Messina so great, shows up here in Jim’s solo work. There is a brigtness and an alure to these songs. He goes from a light Latin feel to a sexy soulful sound featuring a horn section that really cooks. The memories associated with this album for me, make it’s purchase more than justified. This album could be released right now and would be better than most of what hits the current charts.

by Scott Marks, amazon

Jimmy Messina – Oasis (1979):

Jimmy Messina - Oasis (1979) [Sony Music MHCP 766, Japan]

Tracklist:

01. New And Different
02. Do You Want To Dance
03. Seeing You (For The First Time)
04. Free To Be Me
05. Talk To Me
06. Love Is Here
07. Waitin’ On You
08. (Is This) Lovin’ You Lady
09. The Magic Of Love

Musicians:

Bass, Backing Vocals – Wayne Nelson
Drums, Timbales – Tony Moreno
Keyboards, Synthesizer, Backing Vocals – Jim Studer
Percussion – Milt Holland
Synthesizer [Prophet Programmer] – Tony Barbetta
Tenor Saxophone, Alto Saxophone, Flute, Clarinet, Backing Vocals – Craig Thomas
Trumpet, Flugelhorn, Trombone, Arranged By [Horns] – Jeff Elliott
Vocals, Guitar, Producer – Jimmy Messina

EAC Log
Exact Audio Copy V1.1 from 23. June 2015

Отчёт EAC об извлечении, выполненном 24. июля 2017, 20:57

Jimmy Messina / Oasis

Дисковод: ASUS DRW-24B3ST Adapter: 0 ID: 0

Режим чтения : Достоверность
Использование точного потока : Да
Отключение кэша аудио : Да
Использование указателей C2 : Нет

Коррекция смещения при чтении : 6
Способность читать области Lead-in и Lead-out : Нет
Заполнение пропущенных сэмплов тишиной : Да
Удаление блоков с тишиной в начале и конце : Нет
При вычислениях CRC использовались нулевые сэмплы : Да
Интерфейс : Установленный внешний ASPI-интерфейс

Выходной формат : Пользовательский кодировщик
Выбранный битрейт : 1024 kBit/s
Качество : Высокий
Добавление ID3-тега : Нет
Утилита сжатия : C:Program Files (x86)Exact Audio CopyFlacflac.exe
Дополнительные параметры : -V -8 -T "Date=%year%" -T "Genre=%genre%" %source%

TOC извлечённого CD

Трек | Старт | Длительность | Начальный сектор | Конечный сектор
––––––––––––––––––––––––––––––––––-
1 | 0:00.00 | 3:55.63 | 0 | 17687
2 | 3:55.63 | 5:11.66 | 17688 | 41078
3 | 9:07.54 | 5:56.17 | 41079 | 67795
4 | 15:03.71 | 2:55.45 | 67796 | 80965
5 | 17:59.41 | 2:29.60 | 80966 | 92200
6 | 20:29.26 | 5:01.18 | 92201 | 114793
7 | 25:30.44 | 3:18.49 | 114794 | 129692
8 | 28:49.18 | 5:05.49 | 129693 | 152616
9 | 33:54.67 | 7:22.25 | 152617 | 185791

Характеристики диапазона извлечения и сообщения об ошибках

Выбранный диапазон

Имя файла E:TorrentsJimmy Messina – 1979 – OasisJimmy Messina – Oasis.wav

Пиковый уровень 100.0 %
Скорость извлечения 7.9 X
Качество диапазона 100.0 %
CRC теста EBEC06BC
CRC копии EBEC06BC
Копирование… OK

Ошибок не произошло

AccurateRip: сводка

Трек 1 : извлечено точно (доверие 2) [D8605FB8] (AR v2)
Трек 2 : извлечено точно (доверие 2) [5D3DE5D9] (AR v2)
Трек 3 : извлечено точно (доверие 2) [426F2656] (AR v2)
Трек 4 : извлечено точно (доверие 2) [4FB96B44] (AR v2)
Трек 5 : извлечено точно (доверие 2) [822E3DCA] (AR v2)
Трек 6 : извлечено точно (доверие 2) [B5F7F556] (AR v2)
Трек 7 : извлечено точно (доверие 2) [668377BF] (AR v2)
Трек 8 : извлечено точно (доверие 2) [E1B62DB9] (AR v2)
Трек 9 : извлечено точно (доверие 2) [88BD9ADA] (AR v2)

Все треки извлечены точно

Конец отчёта

==== Контрольная сумма отчёта D33015D73526CCFC439AFEFDD5870007CD2BCDD586C2FC52DBBFF6CA79EA6205 ====

DR Log
foobar2000 1.2.9 / Dynamic Range Meter 1.1.1
log date: 2017-07-25 10:54:38

––––––––––––––––––––––––––––––––––––––––
Analyzed: Jimmy Messina / Oasis
––––––––––––––––––––––––––––––––––––––––

DR Peak RMS Duration Track
––––––––––––––––––––––––––––––––––––––––
DR9 0.00 dB -10.64 dB 3:56 01-New And Different Way
DR9 0.00 dB -10.48 dB 5:12 02-Do You Want To Dance
DR10 -0.01 dB -12.29 dB 5:56 03-Seeing You (For The First Time)
DR8 0.00 dB -9.01 dB 2:56 04-Free To Be Me
DR12 -1.50 dB -17.43 dB 2:30 05-Talk To Me
DR9 0.00 dB -11.44 dB 5:01 06-Love Is Here
DR10 0.00 dB -11.51 dB 3:19 07-Waitin’ On You
DR9 0.00 dB -11.35 dB 5:06 08-(Is This) Lovin’ Lou Lady
DR10 -0.02 dB -13.88 dB 7:22 09-The Magic Of Love
––––––––––––––––––––––––––––––––––––––––

Number of tracks: 9
Official DR value: DR9

Samplerate: 44100 Hz
Channels: 2
Bits per sample: 16
Bitrate: 903 kbps
Codec: FLAC

CUETools Log
[CUETools log; Date: 25.07.2017 10:51:31; Version: 2.1.4]
[CTDB TOCID: NYKs_9Rz8Ldk9YpT1VxbiLK_6Bo-] found.
Track | CTDB Status
1 | (13/13) Accurately ripped
2 | (13/13) Accurately ripped
3 | (13/13) Accurately ripped
4 | (13/13) Accurately ripped
5 | (13/13) Accurately ripped
6 | (13/13) Accurately ripped
7 | (13/13) Accurately ripped
8 | (13/13) Accurately ripped
9 | (13/13) Accurately ripped
[AccurateRip ID: 000d77c2-006293f9-6109ad09] found.
Track [ CRC | V2 ] Status
01 [25a1afa5|d8605fb8] (0+2/4) Accurately ripped
02 [5d5e1199|5d3de5d9] (0+2/4) Accurately ripped
03 [73a92f48|426f2656] (0+2/4) Accurately ripped
04 [27f4c3c2|4fb96b44] (0+2/4) Accurately ripped
05 [b877c693|822e3dca] (0+2/4) Accurately ripped
06 [dc64b5a6|b5f7f556] (0+2/4) Accurately ripped
07 [5b1d0995|668377bf] (0+2/4) Accurately ripped
08 [b79e2489|e1b62db9] (0+2/4) Accurately ripped
09 [1d92f78d|88bd9ada] (0+2/4) Accurately ripped
Offsetted by 580:
01 [09bab601] (0/4) No match (V2 was not tested)
02 [ca1ba13a] (0/4) No match (V2 was not tested)
03 [ce61d6b2] (0/4) No match (V2 was not tested)
04 [66ed0b2c] (0/4) No match (V2 was not tested)
05 [8fb74275] (0/4) No match (V2 was not tested)
06 [ab4bf9ee] (0/4) No match (V2 was not tested)
07 [136104cb] (0/4) No match (V2 was not tested)
08 [b26f5b84] (0/4) No match (V2 was not tested)
09 [922b5e5f] (0/4) No match (V2 was not tested)

Track Peak [ CRC32 ] [W/O NULL] [ LOG ]
– 100,0 [EBEC06BC] [CB18F877] CRC32
01 100,0 [8FEC6A90] [33069111]
02 100,0 [1CC66054] [F2D287B2]
03 99,8 [9C9718C5] [54770EA4]
04 100,0 [696CAE23] [306636EB]
05 84,1 [5870F0CE] [353E67AF]
06 100,0 [71B8EDD9] [291C8B48]
07 99,9 [2EE70EED] [94A1FC1C]
08 100,0 [0C3272AF] [89606B9C]
09 99,8 [78FCBD60] [583351AB]

Jimmy Messina - Oasis (1979) [Sony Music MHCP 766, Japan]

All thanks go to Копысов

Download Jimmy Messina – Oasis (1979):

Jimmy Messina – Oasis (1979) [Sony Music MHCP 766, Japan] Download, Warez, DDL, Free, Full Album, Torrent, Legal.

Download