Jimi Hendrix – Loose Ends (1974) | ViralVideoPk

Daily Dose of Free Downloads

Jimi Hendrix – Loose Ends (1974)

Download

Jimi Hendrix - Loose Ends (1974)

Jimi Hendrix – Loose Ends (1974)
EAC | Flac(Image) + Cue + Log > 220 Mb | Mp3 CBR 320Kpbs > 83 Mb
Hard/Psychedelic/Blues Rock | TT – 35:21 | Label: Polydor KK | Cat. # P20P 22011 | 1989, Japan
Scans (png) > 29 Mb | NitroFlare, IcerBox

Loose Ends is a posthumous compilation album by American guitarist Jimi Hendrix, released in February 1974 in the United Kingdom. It was the fourth and last Hendrix studio album released posthumously by manager Michael Jeffery. The album features a collection of outtakes and jams, with the exception of "The Stars That Play with Laughing Sam’s Dice" which is the sole authorized track by Hendrix, in a new stereo mix by Eddie Kramer.

The album was engineered, mixed and compiled by John Jansen, who is listed on the record’s sleeve as "Alex Trevor" because he did not wish his name to be on the LP’s credits. Additional engineering was provided by Eddie Kramer, Dave Palmer, Kim King, Gary Kellgren, Jack Adams, Tom Flye and Jim Robinson.

Reprise Records (Jimi Hendrix’ label at the time), declined to issue this album in the United States and Canada as they considered the material below standard. All the tracks on this LP have been subsequently re-released on other official albums, in some form, except "Blue Suede Shoes". The UK, French and Japanese pressings all had different covers.

This release was also repackaged in 1983 under the name The Jimi Hendrix Album on LP and cassette (Contour Records, UK).

wikipedia.org
Jimi Hendrix - Loose Ends (1974)

Jimi Hendrix at wiki | Jimi Hendrix at discogs | Jimi Hendrix official website

*********
Jimi Hendrix – Loose Ends at discogs

Jimi Hendrix - Loose Ends (1974)

Tracklist:

01. Come Down Hard On Me Baby [02:59]
02. Blue Suede Shoes [03:58]
03. Jam 292 [03:54]
04. The Stars That Play With Laughing Sam’s Dice [04:21]
05. Drifters Escape [03:04]
06. Burning Desire [09:30]
07. Hoochie Coochie Man [05:59]
08. Have You Ever Been (To Electric Ladyland) [01:32]

EAC
Exact Audio Copy V0.99 prebeta 5 from 4. May 2009

EAC extraction logfile from 6. May 2013, 12:56

JIMI HENDRIX / Loose Ends

Used drive : ASUS DRW-24B3ST Adapter: 4 ID: 0

Read mode : Secure
Utilize accurate stream : Yes
Defeat audio cache : Yes
Make use of C2 pointers : No

Read offset correction : 6
Overread into Lead-In and Lead-Out : No
Fill up missing offset samples with silence : Yes
Delete leading and trailing silent blocks : No
Null samples used in CRC calculations : Yes
Used interface : Native Win32 interface for Win NT & 2000

Used output format : User Defined Encoder
Selected bitrate : 1024 kBit/s
Quality : High
Add ID3 tag : No
Command line compressor : C:Program Files (x86)EACWVwavpack.exe
Additional command line options : -h -hh -m %s %d

TOC of the extracted CD

Track | Start | Length | Start sector | End sector
––––––––––––––––––––––––––––-
1 | 0:00.37 | 2:59.18 | 37 | 13479
2 | 2:59.55 | 3:58.30 | 13480 | 31359
3 | 6:58.10 | 3:54.40 | 31360 | 48949
4 | 10:52.50 | 4:21.52 | 48950 | 68576
5 | 15:14.27 | 3:04.33 | 68577 | 82409
6 | 18:18.60 | 9:30.72 | 82410 | 125231
7 | 27:49.57 | 5:59.30 | 125232 | 152186
8 | 33:49.12 | 1:32.28 | 152187 | 159114

Range status and errors

Selected range

Filename S:JIMI HENDRIX1974- Loose Ends (JP 1989 Polydor KK • P20P 22011)JIMI HENDRIX – Loose Ends.wav

Peak level 100.0 %
Range quality 99.9 %
Test CRC F105E29D
Copy CRC F105E29D
Copy OK

No errors occurred

AccurateRip summary

Track 1 not present in database
Track 2 not present in database
Track 3 not present in database
Track 4 not present in database
Track 5 not present in database
Track 6 not present in database
Track 7 not present in database
Track 8 not present in database

None of the tracks are present in the AccurateRip database

End of status report

Dynamic Range
foobar2000 1.2.9 / Dynamic Range Meter 1.1.1
log date: 2017-01-02 23:24:54

––––––––––––––––––––––––––––––––––––––––
Analyzed: JIMI HENDRIX / Loose Ends
––––––––––––––––––––––––––––––––––––––––

DR Peak RMS Duration Track
––––––––––––––––––––––––––––––––––––––––
DR13 0.00 dB -14.68 dB 2:59 01-Come Down Hard On Me Baby
DR13 0.00 dB -18.20 dB 3:58 02-Blue Suede Shoes
DR13 0.00 dB -14.81 dB 3:55 03-Jam 292
DR10 0.00 dB -11.96 dB 4:22 04-The Stars That Play With Laughing Sam’s Dice
DR12 0.00 dB -13.98 dB 3:04 05-Drifters Escape
DR13 0.00 dB -16.03 dB 9:31 06-Burning Desire
DR12 -0.68 dB -15.66 dB 5:59 07-Hoochie Coochie Man
DR12 -0.53 dB -16.45 dB 1:32 08-Have You Ever Been (To Electric Ladyland)
––––––––––––––––––––––––––––––––––––––––

Number of tracks: 8
Official DR value: DR12

Samplerate: 44100 Hz
Channels: 2
Bits per sample: 16
Bitrate: 846 kbps
Codec: FLAC

CUETools
[CUETools log; Date: 02.01.2017 23:24:43; Version: 2.1.4]
Pregap length 00:00:37.
[CTDB TOCID: GA6ahlX.XE68zakeDfhF64kjaNg-] found.
Track | CTDB Status
1 | (1/1) Accurately ripped
2 | (1/1) Accurately ripped
3 | (1/1) Accurately ripped
4 | (1/1) Accurately ripped
5 | (1/1) Accurately ripped
6 | (1/1) Accurately ripped
7 | (1/1) Accurately ripped
8 | (1/1) Accurately ripped
[AccurateRip ID: 000a6584-00476ab9-48084908] found.
Track [ CRC | V2 ] Status
01 [b65cf0ea|7d088269] (1+0/2) Accurately ripped
02 [c406fef6|b52947dd] (1+0/2) Accurately ripped
03 [c0ae4707|45d29fdc] (1+0/2) Accurately ripped
04 [7fadbf4b|49c86a24] (1+0/2) Accurately ripped
05 [4857e32e|a380b66f] (1+0/2) Accurately ripped
06 [6a05b75e|295d0bbe] (1+0/2) Accurately ripped
07 [f811b141|ce705435] (1+0/2) Accurately ripped
08 [2a1a767e|2357702e] (1+0/2) Accurately ripped
Offsetted by -18:
01 [76615f4e] (1/2) Accurately ripped
02 [a97fc743] (1/2) Accurately ripped
03 [d7e57d48] (1/2) Accurately ripped
04 [4707f84c] (1/2) Accurately ripped
05 [1005a2d9] (1/2) Accurately ripped
06 [21ae64bb] (1/2) Accurately ripped
07 [b6af9b89] (1/2) Accurately ripped
08 [d8e87659] (1/2) Accurately ripped

Track Peak [ CRC32 ] [W/O NULL] [ LOG ]
– 100,0 [F105E29D] [CD0772CF] CRC32
01 100,0 [F92BF958] [606F8F08]
02 100,0 [6B2E989A] [E267689C]
03 100,0 [90E7E550] [B17FFC42]
04 100,0 [5EC35B6C] [9DB7C08D]
05 100,0 [A415FF36] [640C7E41]
06 100,0 [B516D1C3] [91615CCF]
07 92,4 [02E95825] [9934F559]
08 94,1 [3040D58A] [63B78D7A]

Jimi Hendrix - Loose Ends (1974)

All thanks go to original releaser …

Jimi Hendrix – Loose Ends (1974) Download, Warez, DDL, Free, Full Album, Torrent, Legal.

Download


  • Recent Posts

  • Recent Tags