Jimi Hendrix – Isle Of Wight (1971)

Download
Jimi Hendrix - Isle Of Wight (1971)

Jimi Hendrix – Isle Of Wight (1971)
EAC | Flac(Image) + Cue + Log > 237 Mb | Mp3 CBR 320Kpbs > 86 Mb
Psychedelic/Blues Rock | TT – 34:07 | Label: Polydor KK | Cat. # P20P 22008 | 1989, Japan
Scans Included | NitroFlare, FileFactory

~ Recorded at The Isle Of Wight Festival 1970. ~

Jimi Hendrix - Isle Of Wight (1971)

Jimi Hendrix at wiki | Jimi Hendrix at discogs | Jimi Hendrix official website

*********
Jimi Hendrix – Isle Of Wight at discogs

Jimi Hendrix - Isle Of Wight (1971)

Tracklist:

01. Midnight Lightning [07:12]
02. Foxy Lady [08:39]
03. Lover Man [03:17]
04. Freedom [04:21]
05. All Along The Watchtower [04:27]
06. In From The Storm [06:08]

EAC
Exact Audio Copy V0.99 prebeta 5 from 4. May 2009

EAC extraction logfile from 6. May 2013, 11:58

JIMI HENDRIX / Isle Of Wight

Used drive : ASUS DRW-24B3ST Adapter: 4 ID: 0

Read mode : Secure
Utilize accurate stream : Yes
Defeat audio cache : Yes
Make use of C2 pointers : No

Read offset correction : 6
Overread into Lead-In and Lead-Out : No
Fill up missing offset samples with silence : Yes
Delete leading and trailing silent blocks : No
Null samples used in CRC calculations : Yes
Used interface : Native Win32 interface for Win NT & 2000

Used output format : User Defined Encoder
Selected bitrate : 1024 kBit/s
Quality : High
Add ID3 tag : No
Command line compressor : C:Program Files (x86)EACWVwavpack.exe
Additional command line options : -h -hh -m %s %d

TOC of the extracted CD

Track | Start | Length | Start sector | End sector
––––––––––––––––––––––––––––-
1 | 0:00.37 | 7:12.38 | 37 | 32474
2 | 7:13.00 | 8:39.65 | 32475 | 71464
3 | 15:52.65 | 3:18.00 | 71465 | 86314
4 | 19:10.65 | 4:21.37 | 86315 | 105926
5 | 23:32.27 | 4:27.00 | 105927 | 125951
6 | 27:59.27 | 6:08.33 | 125952 | 153584

Range status and errors

Selected range

Filename S:JIMI HENDRIX1971- Isle Of Wight (JP 1989 Polydor KK • P20P 22008)JIMI HENDRIX – Isle Of Wight.wav

Peak level 100.0 %
Range quality 100.0 %
Test CRC 00B1E530
Copy CRC 00B1E530
Copy OK

No errors occurred

AccurateRip summary

Track 1 cannot be verified as accurate (confidence 2) [E4D3D179], AccurateRip returned [D5E68B68]
Track 2 accurately ripped (confidence 2) [61C82CCD]
Track 3 accurately ripped (confidence 2) [F6CAE222]
Track 4 accurately ripped (confidence 2) [242AC622]
Track 5 accurately ripped (confidence 2) [F4C086F1]
Track 6 cannot be verified as accurate (confidence 2) [4511338E], AccurateRip returned [5830B1BC]

4 track(s) accurately ripped
2 track(s) could not be verified as accurate

Some tracks could not be verified as accurate

End of status report

Dynamic Range
foobar2000 1.2.9 / Dynamic Range Meter 1.1.1
log date: 2016-12-27 23:45:41

––––––––––––––––––––––––––––––––––––––––
Analyzed: JIMI HENDRIX / Isle Of Wight
––––––––––––––––––––––––––––––––––––––––

DR Peak RMS Duration Track
––––––––––––––––––––––––––––––––––––––––
DR11 -1.14 dB -15.09 dB 7:13 01-Midnight Lightning
DR10 0.00 dB -12.26 dB 8:40 02-Foxy Lady
DR11 0.00 dB -12.34 dB 3:18 03-Lover Man
DR11 -0.25 dB -13.31 dB 4:21 04-Freedom
DR12 0.00 dB -13.04 dB 4:27 05-All Along The Watchtower
DR11 0.00 dB -13.08 dB 6:08 06-In From The Storm
––––––––––––––––––––––––––––––––––––––––

Number of tracks: 6
Official DR value: DR11

Samplerate: 44100 Hz
Channels: 2
Bits per sample: 16
Bitrate: 920 kbps
Codec: FLAC

CUETools
[CUETools log; Date: 27.12.2016 23:45:32; Version: 2.1.4]
Pregap length 00:00:37.
[CTDB TOCID: c6bXMeYoecvqZWyNm0uLfJyToQQ-] found.
Track | CTDB Status
1 | (2/4) Accurately ripped, or (1/4) differs in 3 samples @01:19:53
2 | (3/4) Accurately ripped
3 | (3/4) Accurately ripped
4 | (3/4) Accurately ripped
5 | (3/4) Accurately ripped
6 | (2/4) Accurately ripped, or (1/4) differs in 3 samples @03:02:33
[AccurateRip ID: 0008c90c-002d8c7c-4307ff06] found.
Track [ CRC | V2 ] Status
01 [e4d3d179|2a9ca5bf] (0+0/7) No match
02 [61c82ccd|ec73b5bc] (3+2/7) Accurately ripped
03 [f6cae222|ed5432bc] (3+2/7) Accurately ripped
04 [242ac622|b19d6bb0] (3+2/7) Accurately ripped
05 [f4c086f1|331ba5dd] (3+2/7) Accurately ripped
06 [4511338e|8a621aac] (0+0/7) No match

Track Peak [ CRC32 ] [W/O NULL] [ LOG ]
– 100,0 [00B1E530] [1B51F254] CRC32
01 87,7 [5BEADEA3] [901ED155]
02 100,0 [01AA18D2] [9A7C86EF]
03 100,0 [D4004767] [401D7DDA]
04 97,1 [CCAD8029] [C8CE9145]
05 100,0 [F86F90CC] [29F53871]
06 100,0 [B26A56F9] [B96FC75F]

Jimi Hendrix - Isle Of Wight (1971)

All thanks go to original releaser …

Jimi Hendrix – Isle Of Wight (1971) Download, Warez, DDL, Free, Full Album, Torrent, Legal.

Download