Jimi Hendrix – Hendrix In The West (1972) | ViralVideoPk

Daily Dose of Free Downloads

Jimi Hendrix – Hendrix In The West (1972)

Download

Jimi Hendrix - Hendrix In The West (1972)

Jimi Hendrix – Hendrix In The West (1972)
EAC | Flac(Image) + Cue + Log > 278 Mb | Mp3 CBR 320Kpbs > 104 Mb
Psychedelic/Blues Rock | TT – 40:48 | Label: Polydor KK | Cat. # P20P 22009 | 1989, Japan
Scans (Jpg) Included | NitroFlare, FileFactory

There were a lot of terrible album debacles in the wake of Jimi Hendrix’s death in 1970, but there were a handful of keepers. The Cry of Love and Rainbow Bridge were both excellent, but now the material from both albums has been officially released as part of First Rays of the New Rising Sun or on another compilation. Even the best material from the really bad albums like Midnight Lightning and War Heroes, has now been officially released without the egregious posthumous overdubs. But somehow, In the West, one of those keepers, remained basically out of print until 2011. Yes, it’s a hodge-podge, made of live tracks largely from 1969 and 1970. But it’s a bunch of great live tracks, including some real rarities. The opening sequence of "God Save the Queen" and "Sgt. Pepper’s Lonely Hearts Club Band" is rare and excellent in itself, and Hendrix’s intro is hilarious (he was a truly funny guy). "Little Wing" and "I Don’t Live Today" (not on the original LP) were also live rarities for Hendrix, but not as rare as him covering "Blue Suede Shoes" or "Johnny B. Goode" (an absolutely blistering version that might top Chuck Berry’s). "Lover Man" was a live staple, but in this version, Hendrix slips in a quote from "Flight of the Bumble Bee," and listen for a quote from "Tomorrow Never Knows" in "I Don’t Live Today." Fans familiar with the original vinyl should note some differences. The versions of "Voodoo Child (Slight Return)" and "Little Wing" (recorded at Royal Albert Hall) have recently been released elsewhere, so they’ve been replaced with versions from San Diego 1969 and Winterland 1968 (oddly enough, this very same version of "Little Wing" was also released on the Winterland box set the same day). In addition, to "I Don’t Live Today," "Fire," and "Spanish Castle Magic" are added as bonus tracks, also from the San Diego show. Old vinyl fetishists may quibble that the tracks have been resequenced, but most listeners will have no idea. In the West is a great sampling of Hendrix’s late-period live material (and his sense of humor) making its long awaited appearance in the digital world.

by Sean Westergaard, allmusic.com
Jimi Hendrix - Hendrix In The West (1972)

Jimi Hendrix at wiki | Jimi Hendrix at discogs | Jimi Hendrix official website

*********
Jimi Hendrix – Hendrix In The West at discogs

Jimi Hendrix - Hendrix In The West (1972)

Tracklist:

01. The Queen [The Isle of Wight Festival, UK 30.08.70] [04:37]
02. Sgt. Pepper’s Lonely Hearts Club Band [The Isle of Wight Festival, UK 30.08.70] [03:16]
03. Little Wing [San Diego Sports Arena, San Diego, California 24.05.69] [04:31]
04. Red House [San Diego Sports Arena, San Diego, California 24.05.69] [07:52]
05. Johnny B. Goode [Berkeley Community Theatre, Berkeley, California 30.05.70] [02:39]
06. Lover Man [Berkeley Community Theatre, Berkeley, California 30.05.70] [01:21]
07. Blue Suede Shoes [Berkeley Community Theatre, Berkeley, California 30.05.70] [03:18]
08. Voodoo Chile [San Diego Sports Arena, San Diego, California 24.05.69] [13:10]

EAC
Exact Audio Copy V0.99 prebeta 5 from 4. May 2009

EAC extraction logfile from 6. May 2013, 12:25

JIMI HENDRIX / Hendrix In The West

Used drive : ASUS DRW-24B3ST Adapter: 4 ID: 0

Read mode : Secure
Utilize accurate stream : Yes
Defeat audio cache : Yes
Make use of C2 pointers : No

Read offset correction : 6
Overread into Lead-In and Lead-Out : No
Fill up missing offset samples with silence : Yes
Delete leading and trailing silent blocks : No
Null samples used in CRC calculations : Yes
Used interface : Native Win32 interface for Win NT & 2000

Used output format : User Defined Encoder
Selected bitrate : 1024 kBit/s
Quality : High
Add ID3 tag : No
Command line compressor : C:Program Files (x86)EACWVwavpack.exe
Additional command line options : -h -hh -m %s %d

TOC of the extracted CD

Track | Start | Length | Start sector | End sector
––––––––––––––––––––––––––––-
1 | 0:00.37 | 4:37.00 | 37 | 20811
2 | 4:37.37 | 3:16.00 | 20812 | 35511
3 | 7:53.37 | 4:31.73 | 35512 | 55909
4 | 12:25.35 | 7:52.20 | 55910 | 91329
5 | 20:17.55 | 2:39.67 | 91330 | 103321
6 | 22:57.47 | 1:21.63 | 103322 | 109459
7 | 24:19.35 | 3:18.35 | 109460 | 124344
8 | 27:37.70 | 13:10.55 | 124345 | 183649

Range status and errors

Selected range

Filename S:JIMI HENDRIX1972- Hendrix In The West (JP 1989 Polydor KK • P20P 22009)JIMI HENDRIX – Hendrix In The West.wav

Peak level 100.0 %
Range quality 100.0 %
Test CRC BEC80CA7
Copy CRC BEC80CA7
Copy OK

No errors occurred

AccurateRip summary

Track 1 accurately ripped (confidence 3) [5DB71504]
Track 2 accurately ripped (confidence 3) [BEC9A2F0]
Track 3 accurately ripped (confidence 3) [DEDCCBEF]
Track 4 accurately ripped (confidence 3) [8237A9B7]
Track 5 accurately ripped (confidence 3) [F453C190]
Track 6 accurately ripped (confidence 3) [675A99E5]
Track 7 accurately ripped (confidence 2) [45140382]
Track 8 accurately ripped (confidence 3) [5B544099]

All tracks accurately ripped

End of status report

Dynamic Range
foobar2000 1.2.9 / Dynamic Range Meter 1.1.1
log date: 2016-12-28 17:50:19

––––––––––––––––––––––––––––––––––––––––
Analyzed: JIMI HENDRIX / Hendrix In The West
––––––––––––––––––––––––––––––––––––––––

DR Peak RMS Duration Track
––––––––––––––––––––––––––––––––––––––––
DR12 0.00 dB -13.91 dB 4:37 01-The Queen [The Isle of Wight Festival, UK 30.08.70]
DR12 0.00 dB -13.65 dB 3:16 02-Sgt. Pepper’s Lonely Hearts Club Band [The Isle of Wight Festival, UK 30.08.70]
DR11 -0.46 dB -13.83 dB 4:32 03-Little Wing [San Diego Sports Arena, San Diego, California 24.05.69]
DR13 0.00 dB -14.71 dB 7:52 04-Red House [San Diego Sports Arena, San Diego, California 24.05.69]
DR10 0.00 dB -15.46 dB 2:40 05-Johnny B. Goode [Berkeley Community Theatre, Berkeley, California 30.05.70]
DR10 -1.17 dB -14.56 dB 1:22 06-Lover Man [Berkeley Community Theatre, Berkeley, California 30.05.70]
DR12 -0.08 dB -15.47 dB 3:18 07-Blue Suede Shoes [Berkeley Community Theatre, Berkeley, California 30.05.70]
DR12 0.00 dB -15.63 dB 13:11 08-Voodoo Chile [San Diego Sports Arena, San Diego, California 24.05.69]
––––––––––––––––––––––––––––––––––––––––

Number of tracks: 8
Official DR value: DR11

Samplerate: 44100 Hz
Channels: 2
Bits per sample: 16
Bitrate: 908 kbps
Codec: FLAC

CUETools
[CUETools log; Date: 28.12.2016 17:50:08; Version: 2.1.4]
Pregap length 00:00:37.
[CTDB TOCID: jtEqeV9JHCYcZk3wejnO_IsZKFc-] found.
Track | CTDB Status
1 | (14/14) Accurately ripped
2 | (14/14) Accurately ripped
3 | (14/14) Accurately ripped
4 | (14/14) Accurately ripped
5 | (12/14) Accurately ripped
6 | (14/14) Accurately ripped
7 | (14/14) Accurately ripped
8 | (14/14) Accurately ripped
[AccurateRip ID: 000b0d9a-004a3129-78099008] found.
Track [ CRC | V2 ] Status
01 [5db71504|00117a6f] (3+4/9) Accurately ripped
02 [bec9a2f0|1131da9d] (3+4/9) Accurately ripped
03 [dedccbef|21cea3a8] (3+4/9) Accurately ripped
04 [8237a9b7|9951837a] (3+4/9) Accurately ripped
05 [f453c190|c2a5c3bb] (3+4/9) Accurately ripped
06 [675a99e5|50ff71e7] (3+4/9) Accurately ripped
07 [45140382|f0149131] (2+4/8) Accurately ripped
08 [5b544099|e67011da] (3+4/9) Accurately ripped
Offsetted by -153:
01 [b51666b5] (0/9) No match (V2 was not tested)
02 [2eb10675] (0/9) No match (V2 was not tested)
03 [512df1e2] (0/9) No match (V2 was not tested)
04 [83e2423d] (0/9) No match (V2 was not tested)
05 [5c55243b] (0/9) No match (V2 was not tested)
06 [1da87415] (0/9) No match (V2 was not tested)
07 [fffadc5b] (0/8) No match (V2 was not tested)
08 [5f673cc9] (0/9) No match (V2 was not tested)

Track Peak [ CRC32 ] [W/O NULL] [ LOG ]
– 100,0 [BEC80CA7] [2BF9902A] CRC32
01 100,0 [EAF091A2] [11E8BC05]
02 100,0 [78900574] [025D7849]
03 94,8 [6CFCABC9] [69A35E1F]
04 100,0 [E9498450] [5B456125]
05 100,0 [D7876DA0] [A26242A6]
06 87,4 [1C41AA90] [14AB7B4A]
07 99,0 [EF06BF5D] [BA89D24A]
08 100,0 [E04FF00A] [0B9F03A9]

Jimi Hendrix - Hendrix In The West (1972)

All thanks go to original releaser …

Jimi Hendrix – Hendrix In The West (1972) Download, Warez, DDL, Free, Full Album, Torrent, Legal.

Download


  • Recent Posts

  • Recent Tags