Jess Morgan – Edison Gloriette (2016) | ViralVideoPk

Daily Dose of Free Downloads

Jess Morgan – Edison Gloriette (2016)

Download

Jess Morgan - Edison Gloriette (2016)

Jess Morgan – Edison Gloriette
Folk, Singer-Songwriter | FLAC (tracks)+cue, front cover | 41:05 min | 206 MB
Label: Drabant Music | Tracks: 11 | Rls.date: 2016

Jess Morgan is a songwriter s songwriter. A cerebral storyteller. October 2016 will see the release of a confident new record from this young British voice on Norwegian record label Drabant Music. Edison Gloriette is a collection of 11 songs inspired by folk, americana, movie nights, date nights, Edward Hopper paintings, romance and heroics. This will be her 4th full length record released October 2016 a tumbler of unfancied folk-roots music, with heart, passion and gusto.

TRACKLIST
01. The Longest Arm (4:22)
02. Don’t Meet Your Heroes (4:07)
03. Still In Fashion (3:44)
04. Hymn In The Morning (4:20)
05. Tell Me What The Trouble Is (3:56)
06. Come To The Opera With Me, Loretta (2:51)
07. Skate While You’re Skinny (2:45)
08. Red Rubies (3:42)
09. In Your Life (4:11)
10. A Hundred Years Old (3:35)
11. In Brooklyn (3:36)

EAC Log
Exact Audio Copy V1.1 from 23. June 2015

EAC extraction logfile from 29. December 2016, 14:19

Jess Morgan / Edison Gloriette

Used drive : PLEXTOR DVDR PX-760A Adapter: 1 ID: 0

Read mode : Secure
Utilize accurate stream : Yes
Defeat audio cache : Yes
Make use of C2 pointers : No

Read offset correction : 30
Overread into Lead-In and Lead-Out : Yes
Fill up missing offset samples with silence : Yes
Delete leading and trailing silent blocks : No
Null samples used in CRC calculations : Yes
Used interface : Native Win32 interface for Win NT & 2000
Gap handling : Appended to previous track

Used output format : User Defined Encoder
Selected bitrate : 1024 kBit/s
Quality : High
Add ID3 tag : No
Command line compressor : C:Program Files (x86)Exact Audio CopyFlacflac.exe
Additional command line options : -8 -V -T "ARTIST=%artist%" -T "TITLE=%title%" -T "ALBUM=%albumtitle%" -T "DATE=%year%" -T "TRACKNUMBER=%tracknr%" -T "GENRE=%genre%" -T "PERFORMER=%albuminterpret%" -T "COMPOSER=%composer%" %haslyrics%–tag-from-file=LYRICS="%lyricsfile%"%haslyrics% -T "ALBUMARTIST=%albumartist%" -T "ALBUM ARTIST=%albumartist%" -T "DISCNUMBER=%cdnumber%" -T "TOTALDISCS=%totalcds%" -T "TOTALTRACKS=%numtracks%" -T "COMMENT=%comment%" %source% -o %dest%

TOC of the extracted CD

Track | Start | Length | Start sector | End sector
––––––––––––––––––––––––––––-
1 | 0:00.00 | 4:22.35 | 0 | 19684
2 | 4:22.35 | 4:06.55 | 19685 | 38189
3 | 8:29.15 | 3:44.24 | 38190 | 55013
4 | 12:13.39 | 4:20.08 | 55014 | 74521
5 | 16:33.47 | 3:56.11 | 74522 | 92232
6 | 20:29.58 | 2:51.25 | 92233 | 105082
7 | 23:21.08 | 2:45.16 | 105083 | 117473
8 | 26:06.24 | 3:41.41 | 117474 | 134089
9 | 29:47.65 | 4:11.07 | 134090 | 152921
10 | 33:58.72 | 3:34.72 | 152922 | 169043
11 | 37:33.69 | 3:35.70 | 169044 | 185238

Track 1

Filename C:EACRips1 The Longest Arm.wav

Pre-gap length 0:00:02.00

Peak level 88.0 %
Extraction speed 4.6 X
Track quality 100.0 %
Test CRC F37FF576
Copy CRC F37FF576
Track not present in AccurateRip database
Copy OK

Track 2

Filename C:EACRips2 Don’t Meet Your Heroes.wav

Peak level 96.3 %
Extraction speed 4.6 X
Track quality 100.0 %
Test CRC 1AF5113B
Copy CRC 1AF5113B
Track not present in AccurateRip database
Copy OK

Track 3

Filename C:EACRips3 Still In Fashion.wav

Peak level 95.1 %
Extraction speed 4.5 X
Track quality 100.0 %
Test CRC 5DC7135B
Copy CRC 5DC7135B
Track not present in AccurateRip database
Copy OK

Track 4

Filename C:EACRips4 Hymn In The Morning.wav

Peak level 96.4 %
Extraction speed 4.6 X
Track quality 100.0 %
Test CRC 5F01B7D4
Copy CRC 5F01B7D4
Track not present in AccurateRip database
Copy OK

Track 5

Filename C:EACRips5 Tell Me What The Trouble Is.wav

Peak level 96.4 %
Extraction speed 4.5 X
Track quality 100.0 %
Test CRC 38310AAB
Copy CRC 38310AAB
Track not present in AccurateRip database
Copy OK

Track 6

Filename C:EACRips6 Come To The Opera With Me, Loretta.wav

Peak level 95.0 %
Extraction speed 3.6 X
Track quality 99.9 %
Test CRC CADB8781
Copy CRC CADB8781
Track not present in AccurateRip database
Copy OK

Track 7

Filename C:EACRips7 Skate While You’re Skinny.wav

Peak level 96.4 %
Extraction speed 4.3 X
Track quality 100.0 %
Test CRC 1196BB4A
Copy CRC 1196BB4A
Track not present in AccurateRip database
Copy OK

Track 8

Filename C:EACRips8 Red Rubies.wav

Peak level 96.4 %
Extraction speed 4.5 X
Track quality 100.0 %
Test CRC 5B2848CE
Copy CRC 5B2848CE
Track not present in AccurateRip database
Copy OK

Track 9

Filename C:EACRips9 In Your Life.wav

Peak level 96.4 %
Extraction speed 4.6 X
Track quality 100.0 %
Test CRC 1509E366
Copy CRC 1509E366
Track not present in AccurateRip database
Copy OK

Track 10

Filename C:EACRips10 A Hundred Years Old.wav

Peak level 93.1 %
Extraction speed 4.5 X
Track quality 100.0 %
Test CRC 6A50B643
Copy CRC 6A50B643
Track not present in AccurateRip database
Copy OK

Track 11

Filename C:EACRips11 In Brooklyn.wav

Peak level 92.0 %
Extraction speed 5.1 X
Track quality 100.0 %
Test CRC 844400D7
Copy CRC 844400D7
Track not present in AccurateRip database
Copy OK

None of the tracks are present in the AccurateRip database

No errors occurred

End of status report

–– CUETools DB Plugin V2.1.6

[CTDB TOCID: DymEJaYX25g659suY2o7vo_8nNQ-] disk not present in database
Submit result: DymEJaYX25g659suY2o7vo_8nNQ- has been uploaded

==== Log checksum ABC9700EE80D7FD5C1FAA72B09B2595F9E9928D959E3229AC393CCBB73600DAD ====

Thanks to the Original customer.
My Blog mp3, flac & HDtracks

Jess Morgan – Edison Gloriette (2016) Download, Warez, DDL, Free, Full Album, Torrent, Legal.

Download


  • Recent Posts

  • Recent Tags