Jerry Garcia & David Grisman – Garcia / Grisman (1991) [MFSL Remastered 2014] Audio CD layer

Download
Jerry Garcia & David Grisman - Garcia / Grisman (1991) [MFSL Remastered 2014] Audio CD layer

Jerry Garcia & David Grisman – Garcia / Grisman (1991) [MFSL Remastered 2014]
EAC | FLAC | Image (Cue&Log) ~ 308 Mb | Mp3 (CBR320) ~ 141 Mb | Scans included | 00:58:28
Bluegrass, Folk, Country-Rock | Label: Mobile Fidelity Sound Lab | # UDSACD 2140

This Grammy-nominated disc heralds the origins of the highly acclaimed acoustic duo of Jerry Garcia (guitar/vocals) and David "Dawg" Grisman (mandolin). They had been chums for years by the time they began their direct partnership in earnest on December 7, 1990, with a nine-song set at the Sweetwater in Mill Valley, CA. Over half of that material would be reworked the following spring – for inclusion on this disc – at Grisman’s newly appointed, plush, and well-lit Dawg Studios. Along with David Grisman Quintet members Jim Kerwin (bass) and Joe Craven (percussion/fiddle), Garcia and Grisman revive a few familiar tunes covering every dimension of popular music, ranging from the blues ("The Thrill Is Gone") to folk-rock ("Friend of the Devil"), as well as pop music standards such as Irving Berlin’s "Russian Lullaby" – which Garcia had previously covered on his 1974 Garcia (Compliments) album – and Hoagy Carmichael’s "Rockin’ Chair." They also examined the origins of authentic traditional folk ("Walkin’ Boss"/"Two Soldiers"). Additionally, the pair collaborated on the original instrumental "Grateful Dawg," which coalesces the distinct styles of Grisman’s "Dawg Music" with Garcia’s Grateful Dead intonations. The results are categorically brilliant and undoubtedly helped usher in the contemporary bluegrass and progressive bluegrass movements. Grisman’s sonically perfected studio coupled with his decades of hands-on engineering and producing expertise helped immensely in capturing and accurately reproducing their unaffected acoustic intimacy. Nowhere is this more evident than the 16-plus minute "Arabia" – which would become a showstopper once they hit the road in the early ’90s. The sound quite literally envelopes the listener, who autonomically becomes drawn into the track as it twists and slithers through several different movements – including the central theme, credited in the liner notes as being based on the traditional Cuban melody "Hasta Siempre." All dimensions of "unplugged" enthusiasts who have not already made Jerry Garcia/David Grisman a top priority are strongly encouraged to do so.

Review by Lindsay Planer, Allmusic.com

Jerry Garcia & David Grisman - Garcia / Grisman (1991) [MFSL Remastered 2014] Audio CD layer

Jerry Garcia at Allmusic
Jerry Garcia Website
Jerry Garcia at Wiki

David Grisman at Allmusic
David Grisman Website
David Grisman at Wiki

Tracklist:

01. The Thrill Is Gone (4:46)
02. Grateful Dawg (3:42)
03. Two Soldiers (4:25)
04. Friend of the Devil (7:06)
05. Russian Lullaby (4:14)
06. Dawg’s Waltz (4:35)
07. Walkin’ Boss (5:18)
08. Rockin’ Chair (7:58)
09. Arabia (16:24)

EAC log
Exact Audio Copy V1.3 from 2. September 2016

EAC extraction logfile from 11. July 2017, 21:36

Jerry Garcia & David Grisman / Jerry Garcia-David Grisman (2014 MFSL)

Used drive : PLEXTOR CD-R PREMIUM Adapter: 1 ID: 1

Read mode : Secure
Utilize accurate stream : Yes
Defeat audio cache : Yes
Make use of C2 pointers : No

Read offset correction : 30
Overread into Lead-In and Lead-Out : No
Fill up missing offset samples with silence : Yes
Delete leading and trailing silent blocks : No
Null samples used in CRC calculations : Yes
Used interface : Native Win32 interface for Win NT & 2000
Gap handling : Appended to previous track

Used output format : User Defined Encoder
Selected bitrate : 768 kBit/s
Quality : High
Add ID3 tag : No
Command line compressor : C:Program Files (x86)Exact Audio CopyFLACFLAC.EXE
Additional command line options : -6 -e -p -V -T "ARTIST=%artist%" -T "TITLE=%title%" -T "ALBUM=%albumtitle%" -T "DATE=%year%" -T "TRACKNUMBER=%tracknr%" -T "GENRE=%genre%" -T "PERFORMER=%albuminterpret%" -T "COMPOSER=%composer%" %haslyrics%–tag-from-file=LYRICS="%lyricsfile%"%haslyrics% -T "ALBUMARTIST=%albumartist%" -T "DISCNUMBER=%cdnumber%" -T "TOTALDISCS=%totalcds%" -T "TOTALTRACKS=%numtracks%" -T "COMMENT=%comment%" %source% -o %dest%

TOC of the extracted CD

Track | Start | Length | Start sector | End sector
––––––––––––––––––––––––––––-
1 | 0:00.00 | 4:46.05 | 0 | 21454
2 | 4:46.05 | 3:41.74 | 21455 | 38103
3 | 8:28.04 | 4:25.30 | 38104 | 58008
4 | 12:53.34 | 7:05.39 | 58009 | 89922
5 | 19:58.73 | 4:13.73 | 89923 | 108970
6 | 24:12.71 | 4:34.63 | 108971 | 129583
7 | 28:47.59 | 5:18.26 | 129584 | 153459
8 | 34:06.10 | 7:58.17 | 153460 | 189326
9 | 42:04.27 | 16:23.72 | 189327 | 263123

Track 1

Filename C:tmp0_RIPS1 – The Thrill Is Gone.wav

Pre-gap length 0:00:02.00

Peak level 92.1 %
Extraction speed 8.9 X
Track quality 100.0 %
Test CRC 257BE617
Copy CRC 257BE617
Accurately ripped (confidence 6) [FB9B3EA9] (AR v2)
Copy OK

Track 2

Filename C:tmp0_RIPS2 – Grateful Dawg.wav

Peak level 92.9 %
Extraction speed 9.7 X
Track quality 100.0 %
Test CRC B195BE87
Copy CRC B195BE87
Accurately ripped (confidence 6) [73B69A2B] (AR v2)
Copy OK

Track 3

Filename C:tmp0_RIPS3 – Two Soldiers.wav

Peak level 92.0 %
Extraction speed 10.5 X
Track quality 100.0 %
Test CRC 957FD7DA
Copy CRC 957FD7DA
Accurately ripped (confidence 6) [7484E9F4] (AR v2)
Copy OK

Track 4

Filename C:tmp0_RIPS4 – Friend Of The Devil.wav

Peak level 91.2 %
Extraction speed 11.6 X
Track quality 100.0 %
Test CRC BC96CECE
Copy CRC BC96CECE
Accurately ripped (confidence 6) [F37B72DE] (AR v2)
Copy OK

Track 5

Filename C:tmp0_RIPS5 – Russian Lullaby.wav

Peak level 94.5 %
Extraction speed 10.4 X
Track quality 99.9 %
Test CRC F43E649B
Copy CRC F43E649B
Accurately ripped (confidence 6) [45B5CBCF] (AR v2)
Copy OK

Track 6

Filename C:tmp0_RIPS6 – Dawg’s Waltz.wav

Peak level 94.6 %
Extraction speed 12.9 X
Track quality 100.0 %
Test CRC 59166D2C
Copy CRC 59166D2C
Accurately ripped (confidence 6) [F3BE416E] (AR v2)
Copy OK

Track 7

Filename C:tmp0_RIPS7 – Walkin’ Boss.wav

Peak level 95.4 %
Extraction speed 13.7 X
Track quality 100.0 %
Test CRC A760E644
Copy CRC A760E644
Accurately ripped (confidence 6) [88FD3CE2] (AR v2)
Copy OK

Track 8

Filename C:tmp0_RIPS8 – Rockin’ Chair.wav

Peak level 95.8 %
Extraction speed 14.8 X
Track quality 100.0 %
Test CRC 45C6B6C7
Copy CRC 45C6B6C7
Accurately ripped (confidence 6) [97E9175F] (AR v2)
Copy OK

Track 9

Filename C:tmp0_RIPS9 – Arabia.wav

Peak level 94.7 %
Extraction speed 11.1 X
Track quality 100.0 %
Test CRC 172C34A8
Copy CRC 172C34A8
Accurately ripped (confidence 6) [04CDD103] (AR v2)
Copy OK

All tracks accurately ripped

No errors occurred

End of status report

–– CUETools DB Plugin V2.1.6

[CTDB TOCID: EnFw1jQFnFZLZx5_AwyHpFUuB6A-] found
Submit result: EnFw1jQFnFZLZx5_AwyHpFUuB6A- has been confirmed
Track | CTDB Status
1 | (6/6) Accurately ripped
2 | (6/6) Accurately ripped
3 | (6/6) Accurately ripped
4 | (6/6) Accurately ripped
5 | (6/6) Accurately ripped
6 | (6/6) Accurately ripped
7 | (6/6) Accurately ripped
8 | (6/6) Accurately ripped
9 | (6/6) Accurately ripped

==== Log checksum 5CB9A18E1D7C43BDC939686A2EDE20DA98A9B706A8647672F265BD4DF2071F3B ====

DR log
foobar2000 1.2 / Dynamic Range Meter 1.1.1
log date: 2017-07-15 22:15:33

––––––––––––––––––––––––––––––––––––––––
Analyzed: Jerry Garcia & David Grisman / Jerry Garcia & David Grisman
––––––––––––––––––––––––––––––––––––––––

DR Peak RMS Duration Track
––––––––––––––––––––––––––––––––––––––––
DR14 -0.71 dB -17.88 dB 4:46 01-The Thrill Is Gone
DR13 -0.64 dB -16.08 dB 3:42 02-Grateful Dawg
DR13 -0.72 dB -16.21 dB 4:25 03-Two Soldiers
DR14 -0.80 dB -18.04 dB 7:06 04-Friend of the Devil
DR14 -0.48 dB -18.05 dB 4:14 05-Russian Lullaby
DR14 -0.48 dB -19.48 dB 4:35 06-Dawg’s Waltz
DR14 -0.40 dB -18.17 dB 5:18 07-Walkin’ Boss
DR16 -0.37 dB -20.55 dB 7:58 08-Rockin’ Chair
DR15 -0.47 dB -19.39 dB 16:24 09-Arabia
––––––––––––––––––––––––––––––––––––––––

Number of tracks: 9
Official DR value: DR14

Samplerate: 44100 Hz
Channels: 2
Bits per sample: 16
Bitrate: 686 kbps
Codec: FLAC
================================================================================

Jerry Garcia & David Grisman - Garcia / Grisman (1991) [MFSL Remastered 2014] Audio CD layer

Jerry Garcia & David Grisman - Garcia / Grisman (1991) [MFSL Remastered 2014] Audio CD layer

All thanks to original releaser – mclarenspy

More interesting music in My Blog

Jerry Garcia & David Grisman – Garcia / Grisman (1991) [MFSL Remastered 2014] Audio CD layer Download, Warez, DDL, Free, Full Album, Torrent, Legal.

Download