Jennifer Holliday – I'm On Your Side (1991)

Download
Jennifer Holliday - I'm On Your Side (1991)

Jennifer Holliday – I’m On Your Side (1991)
EAC Rip | FLAC (Tracks) +CUE, LOG | 327 MB | Covers Included
Genre: Soul, Funk, R&B | Label: Arista | Catalog Number: 261 519

I’m on Your Side is the fourth album by Jennifer Holliday, released in 1991. The song "I’m on Your Side", a cover version of an Angela Bofill hit, was released as a single, peaking at number 10 on the Hot R&B/Hip-Hop Singles & Tracks. The second single, "Love Stories" peaked at number 29 on the Hot R&B/Hip-Hop Singles & Tracks. Clive Davis the executive producer.

EAC Log
Exact Audio Copy V1.0 beta 1 from 15. November 2010

EAC extraction logfile from 17. June 2014, 11:23

Jennifer Holliday / I’m On Your Side

Used drive : Optiarc DVD RW AD-7200A Adapter: 0 ID: 0

Read mode : Secure
Utilize accurate stream : Yes
Defeat audio cache : Yes
Make use of C2 pointers : No

Read offset correction : 48
Overread into Lead-In and Lead-Out : No
Fill up missing offset samples with silence : Yes
Delete leading and trailing silent blocks : No
Null samples used in CRC calculations : Yes
Used interface : Native Win32 interface for Win NT & 2000
Gap handling : Appended to previous track

Used output format : User Defined Encoder
Selected bitrate : 768 kBit/s
Quality : High
Add ID3 tag : No
Command line compressor : C:Program FilesExact Audio CopyFlacflac.exe
Additional command line options : -8 -V -T "ARTIST=%a" -T "TITLE=%t" -T "ALBUM=%g" -T "DATE=%y" -T "TRACKNUMBER=%n" -T "TOTALTRACKS=%x" -T "GENRE=%m" -T "ALBUMARTIST=%v" -T "ALBUM ARTIST=%v" -T "COMMENT=EAC Secure Mode, Test & Copy, AccurateRip, FLAC -8" %s

TOC of the extracted CD

Track | Start | Length | Start sector | End sector
––––––––––––––––––––––––––––-
1 | 0:00.32 | 5:34.48 | 32 | 25129
2 | 5:35.05 | 4:52.67 | 25130 | 47096
3 | 10:27.72 | 5:06.18 | 47097 | 70064
4 | 15:34.15 | 4:13.22 | 70065 | 89061
5 | 19:47.37 | 5:03.25 | 89062 | 111811
6 | 24:50.62 | 5:03.70 | 111812 | 134606
7 | 29:54.57 | 6:02.25 | 134607 | 161781
8 | 35:57.07 | 4:04.65 | 161782 | 180146
9 | 40:01.72 | 4:04.05 | 180147 | 198451
10 | 44:06.02 | 5:03.15 | 198452 | 221191

Track 1

Filename D:Jennifer Holliday – I’m On Your Side (1991) [FLAC]1 – I’m On Your Side.wav

Pre-gap length 0:00:02.32

Peak level 100.0 %
Extraction speed 2.4 X
Track quality 100.0 %
Test CRC 14C3FD25
Copy CRC 14C3FD25
Accurately ripped (confidence 6) [F123BD27]
Copy OK

Track 2

Filename D:Jennifer Holliday – I’m On Your Side (1991) [FLAC]2 – It’s In There.wav

Pre-gap length 0:00:01.30

Peak level 93.6 %
Extraction speed 2.4 X
Track quality 99.9 %
Test CRC 6ED52A91
Copy CRC 6ED52A91
Accurately ripped (confidence 6) [B00C73B4]
Copy OK

Track 3

Filename D:Jennifer Holliday – I’m On Your Side (1991) [FLAC]3 – Raise The Roof.wav

Pre-gap length 0:00:01.32

Peak level 95.5 %
Extraction speed 3.0 X
Track quality 100.0 %
Test CRC 5BE7787D
Copy CRC 5BE7787D
Accurately ripped (confidence 6) [F04088E5]
Copy OK

Track 4

Filename D:Jennifer Holliday – I’m On Your Side (1991) [FLAC]4 – A Dream With Your Name On It.wav

Pre-gap length 0:00:01.30

Peak level 99.9 %
Extraction speed 3.1 X
Track quality 100.0 %
Test CRC D1772B0B
Copy CRC D1772B0B
Accurately ripped (confidence 6) [FA9C9F97]
Copy OK

Track 5

Filename D:Jennifer Holliday – I’m On Your Side (1991) [FLAC]5 – Guilty.wav

Pre-gap length 0:00:01.25

Peak level 90.4 %
Extraction speed 3.5 X
Track quality 100.0 %
Test CRC B6EDE2C7
Copy CRC B6EDE2C7
Accurately ripped (confidence 6) [6A036835]
Copy OK

Track 6

Filename D:Jennifer Holliday – I’m On Your Side (1991) [FLAC]6 – It Will Haunt Me.wav

Pre-gap length 0:00:01.70

Peak level 100.0 %
Extraction speed 3.7 X
Track quality 100.0 %
Test CRC ED68EE97
Copy CRC ED68EE97
Accurately ripped (confidence 6) [DA724200]
Copy OK

Track 7

Filename D:Jennifer Holliday – I’m On Your Side (1991) [FLAC]7 – Love Stories.wav

Pre-gap length 0:00:01.27

Peak level 96.1 %
Extraction speed 4.0 X
Track quality 100.0 %
Test CRC 42464D95
Copy CRC 42464D95
Accurately ripped (confidence 6) [61E33C43]
Copy OK

Track 8

Filename D:Jennifer Holliday – I’m On Your Side (1991) [FLAC]8 – It Is Love.wav

Pre-gap length 0:00:00.70

Peak level 97.3 %
Extraction speed 4.0 X
Track quality 100.0 %
Test CRC 00EDAC7F
Copy CRC 00EDAC7F
Accurately ripped (confidence 6) [5DD9A92B]
Copy OK

Track 9

Filename D:Jennifer Holliday – I’m On Your Side (1991) [FLAC]9 – I Fall Apart.wav

Pre-gap length 0:00:00.37

Peak level 98.0 %
Extraction speed 3.6 X
Track quality 99.9 %
Test CRC C3C8168B
Copy CRC C3C8168B
Accurately ripped (confidence 6) [29C8A0D6]
Copy OK

Track 10

Filename D:Jennifer Holliday – I’m On Your Side (1991) [FLAC]10 – Move ‘N’ More.wav

Pre-gap length 0:00:01.25

Peak level 99.9 %
Extraction speed 4.0 X
Track quality 99.9 %
Test CRC 70BD83F9
Copy CRC 70BD83F9
Accurately ripped (confidence 6) [371A171A]
Copy OK

All tracks accurately ripped

No errors occurred

End of status report

==== Log checksum A8109BD5DE2340EA657F8412D834E83133106C453D634CFB503215060CB03F16 ====

Tracklist:
01. I’m On Your Side (5:35)
02. It’s In There (4:53)
03. Raise The Roof (5:06)
04. A Dream With Your Name On It (4:13)
05. Guilty (5:03)
06. It Will Haunt Me (5:04)
07. Love Stories (6:02)
08. It Is Love (4:05)
09. I Fall Apart (4:04)
10. Move ‘N’ More (5:03)

Personnel:
Jennifer Holliday, Too Nice (vocals)
Michael J. Powell (guitar, drums, percussion)
Ira Siegel (guitars)
David McMurray, Michael Brecker (saxophone)
Valerie Simpson (piano)
Eric Rehl (keyboards, synthesizers)
Peter Schwartz, Vernon Fails (keyboards)
Albert W. Wilkerson (synthesizers)
Kern Brantley (synthesizer bass)
Wayne Brathwaite (bass)
Ben Keys, Buddy Williams (drums)
Producers include: Nickolas Ashford, Valerie Simpson, Oliver Leiber, Ric Wake, Jennifer Holliday
Engineers include: Mike Allaire, Fernando Kral, Mike Brown

Jennifer Holliday – I'm On Your Side (1991) Download, Warez, DDL, Free, Full Album, Torrent, Legal.

Download