Jeff Palmer/George Garzone/Richard Poole – Opposite Voltage (1999)

Download
Jeff Palmer/George Garzone/Richard Poole - Opposite Voltage (1999)

Jeff Palmer/George Garzone/Richard Poole – Opposite Voltage (1999)
EAC Rip | FLAC with CUE and log | scans | 286 mb
MP3 CBR 320kbps | RAR | 124 mb
Genre: jazz

Opposite Voltage is a 1999 collaboration album between Jeff Palmer, George Garzone, and Richard Poole. It was released by the Music Artists Co.

Jeff Palmer/George Garzone/Richard Poole - Opposite Voltage (1999)

1. Backwards & Forwards
2. De Nyall
3. Metropolis
4. Five Fingers
5. Wind Tunnel
6. Count Sirloin
7. A Tear A Minute

Jeff Palmer-Hammond B-3 organ, bass pedals
George Garzone-tenor & soprano saxophones
Richard Poole-drums

Produced by Jeff Palmer
Engineered by Peter Kontrimas
Recorded 2 November, 1998 at PBS Studio, Westwood, Massachusetts

EAC Log
EAC extraction logfile from 26. June 2017, 18:47 for CD
Jeff Palmer/George Garzone/Richard Poole / Opposite Voltage

Used drive : TSSTcorpDVD+-RW TS-H653B Adapter: 2 ID: 0
Read mode : Secure with NO C2, accurate stream, disable cache
Read offset correction : 6
Overread into Lead-In and Lead-Out : No

Used output format : Internal WAV Routines
44.100 Hz; 16 Bit; Stereo

Other options :
Fill up missing offset samples with silence : Yes
Delete leading and trailing silent blocks : No
Native Win32 interface for Win NT & 2000

Track 1
Filename C:Documents and SettingscuntfistDesktopFLAC’s14Jeff Palmer, George Garzone, Richard Poole – Opposite Voltage (1999) [FLAC]1 – Backwards & Forwards.wav

Pre-gap length 0:00:02.00

Peak level 98.3 %
Track quality 100.0 %
Test CRC AE680B83
Copy CRC AE680B83
Copy OK

Track 2
Filename C:Documents and SettingscuntfistDesktopFLAC’s14Jeff Palmer, George Garzone, Richard Poole – Opposite Voltage (1999) [FLAC]2 – De Nyall.wav

Peak level 100.0 %
Track quality 99.9 %
Test CRC 0C54F8B1
Copy CRC 0C54F8B1
Copy OK

Track 3
Filename C:Documents and SettingscuntfistDesktopFLAC’s14Jeff Palmer, George Garzone, Richard Poole – Opposite Voltage (1999) [FLAC]3 – Metropolis.wav

Peak level 96.2 %
Track quality 100.0 %
Test CRC B95D0F6A
Copy CRC B95D0F6A
Copy OK

Track 4
Filename C:Documents and SettingscuntfistDesktopFLAC’s14Jeff Palmer, George Garzone, Richard Poole – Opposite Voltage (1999) [FLAC]4 – Five Fingers.wav

Peak level 91.4 %
Track quality 100.0 %
Test CRC E4D2573D
Copy CRC E4D2573D
Copy OK

Track 5
Filename C:Documents and SettingscuntfistDesktopFLAC’s14Jeff Palmer, George Garzone, Richard Poole – Opposite Voltage (1999) [FLAC]5 – Wind Tunnel.wav

Peak level 100.0 %
Track quality 100.0 %
Test CRC 020B3D8A
Copy CRC 020B3D8A
Copy OK

Track 6
Filename C:Documents and SettingscuntfistDesktopFLAC’s14Jeff Palmer, George Garzone, Richard Poole – Opposite Voltage (1999) [FLAC]6 – Count Sirloin.wav

Peak level 88.8 %
Track quality 100.0 %
Test CRC 22A4BDD4
Copy CRC 22A4BDD4
Copy OK

Track 7
Filename C:Documents and SettingscuntfistDesktopFLAC’s14Jeff Palmer, George Garzone, Richard Poole – Opposite Voltage (1999) [FLAC]7 – A Tear A Minute.wav

Peak level 99.7 %
Track quality 100.0 %
Test CRC 6BCEF491
Copy CRC 6BCEF491
Copy OK

No errors occured

End of status report

Jeff Palmer/George Garzone/Richard Poole - Opposite Voltage (1999)

Jeff Palmer/George Garzone/Richard Poole – Opposite Voltage (1999) Download, Warez, DDL, Free, Full Album, Torrent, Legal.

Download