Jean Sibelius – Piano Music Vol. 2 – Havard Gimse (2000) {Naxos 8.554808}

Download
Jean Sibelius - Piano Music Vol. 2 - Havard Gimse (2000) {Naxos 8.554808}

Jean Sibelius – Piano Music Vol. 2 – Håvard Gimse (2000) {Naxos 8.554808}
EAC rip (secure mode) | FLAC (tracks)+CUE+LOG -> 187 Mb | MP3 @320 -> 149 Mb
Full Artwork @ 600 dpi (jpg) -> 20 Mb | 5% repair rar
© 2000 Naxos / HNH International | 8.554808
Classical / Late Romantic / Early Modern / Piano

The Norwegian pianist Håvard Gimse here includes two important sets of the piano pieces, Opp. 34 and 40, and the 6 Finnish Folk Songs, fifth of which, Fratricide, is slightly Bartókian. Sibelius’s contemporary and countryman Selim Palmgren put it perfectly when he wrote that ‘even in what for him were alien regions, [Sibelius] moves with an unfailing responsiveness to tone colour’, and Gimse brings finesse and distinction to this repertoire. This and the companion disc are first recommendations.

This release offers Kyllikki and two important sets of the piano pieces, Opp. 34 & 40, as well as the Six Finnish Folk Songs, the fifth of which, ‘Fratricide’, is slightly Bartokian. As in his earlier disc, the Norwegian pianist Havaard Gimse brings imagination and finesse to this repertoire, and throughout his playing is touched by distinction.

Naxos INFO
About this Recording

Musicians:
Håvard Gimse – piano

tracklist:
01 – Six Finnish Folk-Songs- I. Minum kultani
02 – Six Finnish Folk-Songs- II. Sydamestani rakastan
03 – Six Finnish Folk-Songs- III. Ilta tulee
04 – Six Finnish Folk-Songs- IV. Tuopa tytto
05 – Six Finnish Folk-Songs- V. Velisurmaaja
06 – Six Finnish Folk-Songs- VI. Haamuistelma
07 – Ten Bagatelles, Op. 34- I. Valse
08 – Ten Bagatelles, Op. 34- II. Air de danse
09 – Ten Bagatelles, Op. 34- III. Mazurka
10 – Ten Bagatelles, Op. 34- IV. Couplet
11 – Ten Bagatelles, Op. 34- V. Boutade
12 – Ten Bagatelles, Op. 34- VI. Reverie
13 – Ten Bagatelles, Op. 34- VII. Danse pastorale
14 – Ten Bagatelles, Op. 34- VIII. Joueur de harpe
15 – Ten Bagatelles, Op. 34- IX. Reconnaissance
16 – Ten Bagatelles, Op. 34- X. Souvenir
17 – Kavaljeren
18 – Spagnuolo
19 – Till tranaden
20 – Mandolinato
21 – Morceau romantique
22 – Dance Intermezzo, Op. 45 No. 2
23 – Pensees lyriques, Op. 40- I. Valsette
24 – Pensees lyriques, Op. 40- II. Chant sans paroles
25 – Pensees lyriques, Op. 40- III. Humoresque
26 – Pensees lyriques, Op. 40- IV. Minuetto
27 – Pensees lyriques, Op. 40- V. Berceuse
28 – Pensees lyriques, Op. 40- VI. Pensee melodique
29 – Pensees lyriques, Op. 40- VII. Rondoletto
30 – Pensees lyriques, Op. 40- VIII. Scherzando
31 – Pensees lyriques, Op. 40- IX. Petite serenade
32 – Pensees lyriques, Op. 40- X. Polonaise (Alla polacca)
33 – Kyllikki, Op. 41, Three Lyric Pieces- I. Largamente – Allegro
34 – Kyllikki, Op. 41, Three Lyric Pieces- II. Andantino
35 – Kyllikki, Op. 41, Three Lyric Pieces- III. Comodo

EAC log
Exact Audio Copy V1.0 beta 3 from 29. August 2011

EAC extraction logfile from 26. June 2014, 23:31

Jean Sibelius / Piano Music Vol. 2

Used drive : Optiarc DVD RW AD-5280S Adapter: 2 ID: 1

Read mode : Secure
Utilize accurate stream : Yes
Defeat audio cache : Yes
Make use of C2 pointers : No

Read offset correction : 48
Overread into Lead-In and Lead-Out : No
Fill up missing offset samples with silence : Yes
Delete leading and trailing silent blocks : No
Null samples used in CRC calculations : Yes
Used interface : Native Win32 interface for Win NT & 2000
Gap handling : Appended to previous track

Used output format : User Defined Encoder
Selected bitrate : 768 kBit/s
Quality : High
Add ID3 tag : No
Command line compressor : C:Program FilesExact Audio CopyFLACFLAC.EXE
Additional command line options : -8 -V -T "ARTIST=%artist%" -T "TITLE=%title%" -T "ALBUM=%albumtitle%" -T "DATE=%year%" -T "TRACKNUMBER=%tracknr%" -T "TOTALTRACKS=%numtracks%" -T "GENRE=%genre%" -T "ALBUMARTIST=%albumartist%" -T "ALBUM ARTIST=%albumartist%" -T "COMMENT=EAC Secure Mode, Test & Copy, AccurateRip, FLAC -8" %source%

TOC of the extracted CD

Track | Start | Length | Start sector | End sector
––––––––––––––––––––––––––––-
1 | 0:00.00 | 1:44.42 | 0 | 7841
2 | 1:44.42 | 1:50.45 | 7842 | 16136
3 | 3:35.12 | 1:14.48 | 16137 | 21734
4 | 4:49.60 | 1:04.40 | 21735 | 26574
5 | 5:54.25 | 1:55.55 | 26575 | 35254
6 | 7:50.05 | 0:59.62 | 35255 | 39741
7 | 8:49.67 | 1:47.05 | 39742 | 47771
8 | 10:36.72 | 0:48.25 | 47772 | 51396
9 | 11:25.22 | 1:54.42 | 51397 | 59988
10 | 13:19.64 | 1:47.03 | 59989 | 68016
11 | 15:06.67 | 1:27.08 | 68017 | 74549
12 | 16:34.00 | 2:43.17 | 74550 | 86791
13 | 19:17.17 | 0:48.20 | 86792 | 90411
14 | 20:05.37 | 1:59.00 | 90412 | 99336
15 | 22:04.37 | 0:47.17 | 99337 | 102878
16 | 22:51.54 | 2:11.13 | 102879 | 112716
17 | 25:02.67 | 1:27.30 | 112717 | 119271
18 | 26:30.22 | 0:47.38 | 119272 | 122834
19 | 27:17.60 | 1:41.52 | 122835 | 130461
20 | 28:59.37 | 1:03.45 | 130462 | 135231
21 | 30:03.07 | 2:13.40 | 135232 | 145246
22 | 32:16.47 | 3:08.40 | 145247 | 159386
23 | 35:25.12 | 1:00.65 | 159387 | 163951
24 | 36:26.02 | 1:55.32 | 163952 | 172608
25 | 38:21.34 | 1:09.73 | 172609 | 177856
26 | 39:31.32 | 2:16.58 | 177857 | 188114
27 | 41:48.15 | 1:27.40 | 188115 | 194679
28 | 43:15.55 | 1:08.20 | 194680 | 199799
29 | 44:24.00 | 1:26.07 | 199800 | 206256
30 | 45:50.07 | 1:03.50 | 206257 | 211031
31 | 46:53.57 | 2:55.40 | 211032 | 224196
32 | 49:49.22 | 1:50.48 | 224197 | 232494
33 | 51:39.70 | 3:06.27 | 232495 | 246471
34 | 54:46.22 | 6:00.68 | 246472 | 273539
35 | 60:47.15 | 3:18.47 | 273540 | 288436

Track 1

Filename L:Jean Sibelius – Piano Music Vol. 2 (Gimse) (2000) [FLAC] {Naxos 8.554808}1 – Six Finnish Folk-Songs- I. Minum kultani.wav

Pre-gap length 0:00:02.00

Peak level 27.6 %
Extraction speed 1.6 X
Track quality 99.8 %
Test CRC B171527B
Copy CRC B171527B
Accurately ripped (confidence 4) [68B9411F] (AR v1)
Copy OK

Track 2

Filename L:Jean Sibelius – Piano Music Vol. 2 (Gimse) (2000) [FLAC] {Naxos 8.554808}2 – Six Finnish Folk-Songs- II. Sydamestani rakastan.wav

Pre-gap length 0:00:03.27

Peak level 18.5 %
Extraction speed 2.1 X
Track quality 100.0 %
Test CRC 32677F79
Copy CRC 32677F79
Accurately ripped (confidence 4) [06154A34] (AR v1)
Copy OK

Track 3

Filename L:Jean Sibelius – Piano Music Vol. 2 (Gimse) (2000) [FLAC] {Naxos 8.554808}3 – Six Finnish Folk-Songs- III. Ilta tulee.wav

Peak level 59.5 %
Extraction speed 1.9 X
Track quality 100.0 %
Test CRC 5490634F
Copy CRC 5490634F
Accurately ripped (confidence 4) [77659208] (AR v1)
Copy OK

Track 4

Filename L:Jean Sibelius – Piano Music Vol. 2 (Gimse) (2000) [FLAC] {Naxos 8.554808}4 – Six Finnish Folk-Songs- IV. Tuopa tytto.wav

Pre-gap length 0:00:02.33

Peak level 82.2 %
Extraction speed 1.9 X
Track quality 100.0 %
Test CRC 7BC00787
Copy CRC 7BC00787
Accurately ripped (confidence 4) [056C4470] (AR v1)
Copy OK

Track 5

Filename L:Jean Sibelius – Piano Music Vol. 2 (Gimse) (2000) [FLAC] {Naxos 8.554808}5 – Six Finnish Folk-Songs- V. Velisurmaaja.wav

Pre-gap length 0:00:03.13

Peak level 53.1 %
Extraction speed 2.3 X
Track quality 100.0 %
Test CRC 1035C9F9
Copy CRC 1035C9F9
Accurately ripped (confidence 4) [3D93A2E6] (AR v1)
Copy OK

Track 6

Filename L:Jean Sibelius – Piano Music Vol. 2 (Gimse) (2000) [FLAC] {Naxos 8.554808}6 – Six Finnish Folk-Songs- VI. Haamuistelma.wav

Pre-gap length 0:00:03.03

Peak level 27.9 %
Extraction speed 2.0 X
Track quality 100.0 %
Test CRC A090EA04
Copy CRC A090EA04
Accurately ripped (confidence 4) [156CCDAF] (AR v1)
Copy OK

Track 7

Filename L:Jean Sibelius – Piano Music Vol. 2 (Gimse) (2000) [FLAC] {Naxos 8.554808}7 – Ten Bagatelles, Op. 34- I. Valse.wav

Pre-gap length 0:00:04.45

Peak level 46.7 %
Extraction speed 2.4 X
Track quality 100.0 %
Test CRC C9904A71
Copy CRC C9904A71
Accurately ripped (confidence 4) [E8103D8A] (AR v1)
Copy OK

Track 8

Filename L:Jean Sibelius – Piano Music Vol. 2 (Gimse) (2000) [FLAC] {Naxos 8.554808}8 – Ten Bagatelles, Op. 34- II. Air de danse.wav

Pre-gap length 0:00:02.72

Peak level 58.3 %
Extraction speed 1.9 X
Track quality 100.0 %
Test CRC 264CA0A0
Copy CRC 264CA0A0
Accurately ripped (confidence 4) [BC8B58A5] (AR v1)
Copy OK

Track 9

Filename L:Jean Sibelius – Piano Music Vol. 2 (Gimse) (2000) [FLAC] {Naxos 8.554808}9 – Ten Bagatelles, Op. 34- III. Mazurka.wav

Pre-gap length 0:00:02.30

Peak level 61.6 %
Extraction speed 2.6 X
Track quality 100.0 %
Test CRC CFCC116F
Copy CRC CFCC116F
Accurately ripped (confidence 4) [6A00601E] (AR v1)
Copy OK

Track 10

Filename L:Jean Sibelius – Piano Music Vol. 2 (Gimse) (2000) [FLAC] {Naxos 8.554808}10 – Ten Bagatelles, Op. 34- IV. Couplet.wav

Pre-gap length 0:00:02.39

Peak level 34.8 %
Extraction speed 2.7 X
Track quality 100.0 %
Test CRC 8B8EC392
Copy CRC 8B8EC392
Accurately ripped (confidence 4) [420CC2AB] (AR v1)
Copy OK

Track 11

Filename L:Jean Sibelius – Piano Music Vol. 2 (Gimse) (2000) [FLAC] {Naxos 8.554808}11 – Ten Bagatelles, Op. 34- V. Boutade.wav

Pre-gap length 0:00:04.15

Peak level 50.3 %
Extraction speed 2.6 X
Track quality 100.0 %
Test CRC CF2824F5
Copy CRC CF2824F5
Accurately ripped (confidence 4) [B98DF2E7] (AR v1)
Copy OK

Track 12

Filename L:Jean Sibelius – Piano Music Vol. 2 (Gimse) (2000) [FLAC] {Naxos 8.554808}12 – Ten Bagatelles, Op. 34- VI. Reverie.wav

Pre-gap length 0:00:01.73

Peak level 40.3 %
Extraction speed 3.1 X
Track quality 100.0 %
Test CRC C1BE1161
Copy CRC C1BE1161
Accurately ripped (confidence 4) [14D90537] (AR v1)
Copy OK

Track 13

Filename L:Jean Sibelius – Piano Music Vol. 2 (Gimse) (2000) [FLAC] {Naxos 8.554808}13 – Ten Bagatelles, Op. 34- VII. Danse pastorale.wav

Pre-gap length 0:00:01.60

Peak level 51.4 %
Extraction speed 2.2 X
Track quality 100.0 %
Test CRC 6601F561
Copy CRC 6601F561
Accurately ripped (confidence 4) [624396BC] (AR v1)
Copy OK

Track 14

Filename L:Jean Sibelius – Piano Music Vol. 2 (Gimse) (2000) [FLAC] {Naxos 8.554808}14 – Ten Bagatelles, Op. 34- VIII. Joueur de harpe.wav

Pre-gap length 0:00:02.02

Peak level 47.7 %
Extraction speed 3.1 X
Track quality 100.0 %
Test CRC 6CD4E38D
Copy CRC 6CD4E38D
Accurately ripped (confidence 4) [2DD2043F] (AR v1)
Copy OK

Track 15

Filename L:Jean Sibelius – Piano Music Vol. 2 (Gimse) (2000) [FLAC] {Naxos 8.554808}15 – Ten Bagatelles, Op. 34- IX. Reconnaissance.wav

Pre-gap length 0:00:01.62

Peak level 37.0 %
Extraction speed 2.2 X
Track quality 100.0 %
Test CRC 0540BFBD
Copy CRC 0540BFBD
Accurately ripped (confidence 4) [CF615E29] (AR v1)
Copy OK

Track 16

Filename L:Jean Sibelius – Piano Music Vol. 2 (Gimse) (2000) [FLAC] {Naxos 8.554808}16 – Ten Bagatelles, Op. 34- X. Souvenir.wav

Pre-gap length 0:00:02.22

Peak level 46.8 %
Extraction speed 3.2 X
Track quality 100.0 %
Test CRC 642F7D3D
Copy CRC 642F7D3D
Accurately ripped (confidence 4) [4027A208] (AR v1)
Copy OK

Track 17

Filename L:Jean Sibelius – Piano Music Vol. 2 (Gimse) (2000) [FLAC] {Naxos 8.554808}17 – Kavaljeren.wav

Pre-gap length 0:00:06.05

Peak level 77.4 %
Extraction speed 3.0 X
Track quality 100.0 %
Test CRC CAD83C8A
Copy CRC CAD83C8A
Accurately ripped (confidence 4) [357E047C] (AR v1)
Copy OK

Track 18

Filename L:Jean Sibelius – Piano Music Vol. 2 (Gimse) (2000) [FLAC] {Naxos 8.554808}18 – Spagnuolo.wav

Pre-gap length 0:00:02.05

Peak level 83.4 %
Extraction speed 2.4 X
Track quality 100.0 %
Test CRC 3990ED1F
Copy CRC 3990ED1F
Accurately ripped (confidence 4) [D5C40054] (AR v1)
Copy OK

Track 19

Filename L:Jean Sibelius – Piano Music Vol. 2 (Gimse) (2000) [FLAC] {Naxos 8.554808}19 – Till tranaden.wav

Pre-gap length 0:00:01.65

Peak level 31.4 %
Extraction speed 3.2 X
Track quality 100.0 %
Test CRC 86AEA64B
Copy CRC 86AEA64B
Accurately ripped (confidence 4) [E71DD4D8] (AR v1)
Copy OK

Track 20

Filename L:Jean Sibelius – Piano Music Vol. 2 (Gimse) (2000) [FLAC] {Naxos 8.554808}20 – Mandolinato.wav

Pre-gap length 0:00:05.17

Peak level 52.2 %
Extraction speed 2.8 X
Track quality 100.0 %
Test CRC 6FD18A32
Copy CRC 6FD18A32
Accurately ripped (confidence 4) [6DB0AF8B] (AR v1)
Copy OK

Track 21

Filename L:Jean Sibelius – Piano Music Vol. 2 (Gimse) (2000) [FLAC] {Naxos 8.554808}21 – Morceau romantique.wav

Pre-gap length 0:00:03.70

Peak level 72.1 %
Extraction speed 3.5 X
Track quality 100.0 %
Test CRC 549D410F
Copy CRC 549D410F
Accurately ripped (confidence 4) [539863EB] (AR v1)
Copy OK

Track 22

Filename L:Jean Sibelius – Piano Music Vol. 2 (Gimse) (2000) [FLAC] {Naxos 8.554808}22 – Dance Intermezzo, Op. 45 No. 2.wav

Pre-gap length 0:00:04.30

Peak level 87.9 %
Extraction speed 3.3 X
Track quality 99.9 %
Test CRC 66A919A7
Copy CRC 66A919A7
Accurately ripped (confidence 4) [A2FAA04B] (AR v1)
Copy OK

Track 23

Filename L:Jean Sibelius – Piano Music Vol. 2 (Gimse) (2000) [FLAC] {Naxos 8.554808}23 – Pensees lyriques, Op. 40- I. Valsette.wav

Pre-gap length 0:00:05.30

Peak level 25.8 %
Extraction speed 2.9 X
Track quality 100.0 %
Test CRC 1578D3B3
Copy CRC 1578D3B3
Accurately ripped (confidence 4) [3756D6B2] (AR v1)
Copy OK

Track 24

Filename L:Jean Sibelius – Piano Music Vol. 2 (Gimse) (2000) [FLAC] {Naxos 8.554808}24 – Pensees lyriques, Op. 40- II. Chant sans paroles.wav

Peak level 29.4 %
Extraction speed 3.6 X
Track quality 100.0 %
Test CRC E704A1BC
Copy CRC E704A1BC
Accurately ripped (confidence 4) [8C7D537D] (AR v1)
Copy OK

Track 25

Filename L:Jean Sibelius – Piano Music Vol. 2 (Gimse) (2000) [FLAC] {Naxos 8.554808}25 – Pensees lyriques, Op. 40- III. Humoresque.wav

Peak level 33.4 %
Extraction speed 3.2 X
Track quality 100.0 %
Test CRC 6653381B
Copy CRC 6653381B
Accurately ripped (confidence 4) [0328DEC3] (AR v1)
Copy OK

Track 26

Filename L:Jean Sibelius – Piano Music Vol. 2 (Gimse) (2000) [FLAC] {Naxos 8.554808}26 – Pensees lyriques, Op. 40- IV. Minuetto.wav

Pre-gap length 0:00:02.10

Peak level 49.6 %
Extraction speed 2.5 X
Track quality 99.9 %
Test CRC A747D777
Copy CRC A747D777
Accurately ripped (confidence 4) [D9183AF0] (AR v1)
Copy OK

Track 27

Filename L:Jean Sibelius – Piano Music Vol. 2 (Gimse) (2000) [FLAC] {Naxos 8.554808}27 – Pensees lyriques, Op. 40- V. Berceuse.wav

Pre-gap length 0:00:02.40

Peak level 35.9 %
Extraction speed 3.5 X
Track quality 100.0 %
Test CRC B804862A
Copy CRC B804862A
Accurately ripped (confidence 4) [F1919863] (AR v1)
Copy OK

Track 28

Filename L:Jean Sibelius – Piano Music Vol. 2 (Gimse) (2000) [FLAC] {Naxos 8.554808}28 – Pensees lyriques, Op. 40- VI. Pensee melodique.wav

Pre-gap length 0:00:02.45

Peak level 30.9 %
Extraction speed 3.3 X
Track quality 100.0 %
Test CRC 7CC66550
Copy CRC 7CC66550
Accurately ripped (confidence 4) [6DC30B5C] (AR v1)
Copy OK

Track 29

Filename L:Jean Sibelius – Piano Music Vol. 2 (Gimse) (2000) [FLAC] {Naxos 8.554808}29 – Pensees lyriques, Op. 40- VII. Rondoletto.wav

Pre-gap length 0:00:02.03

Peak level 66.3 %
Extraction speed 3.6 X
Track quality 100.0 %
Test CRC 14EFCD76
Copy CRC 14EFCD76
Accurately ripped (confidence 4) [ABCA2F6E] (AR v1)
Copy OK

Track 30

Filename L:Jean Sibelius – Piano Music Vol. 2 (Gimse) (2000) [FLAC] {Naxos 8.554808}30 – Pensees lyriques, Op. 40- VIII. Scherzando.wav

Pre-gap length 0:00:02.20

Peak level 58.3 %
Extraction speed 3.3 X
Track quality 100.0 %
Test CRC FFEA5C76
Copy CRC FFEA5C76
Accurately ripped (confidence 4) [96E240D6] (AR v1)
Copy OK

Track 31

Filename L:Jean Sibelius – Piano Music Vol. 2 (Gimse) (2000) [FLAC] {Naxos 8.554808}31 – Pensees lyriques, Op. 40- IX. Petite serenade.wav

Pre-gap length 0:00:02.20

Peak level 22.0 %
Extraction speed 4.4 X
Track quality 100.0 %
Test CRC B519A546
Copy CRC B519A546
Accurately ripped (confidence 4) [2D39E6AC] (AR v1)
Copy OK

Track 32

Filename L:Jean Sibelius – Piano Music Vol. 2 (Gimse) (2000) [FLAC] {Naxos 8.554808}32 – Pensees lyriques, Op. 40- X. Polonaise (Alla polacca).wav

Pre-gap length 0:00:02.15

Peak level 66.9 %
Extraction speed 4.0 X
Track quality 100.0 %
Test CRC 23C6ED84
Copy CRC 23C6ED84
Accurately ripped (confidence 4) [C5C9BFEB] (AR v1)
Copy OK

Track 33

Filename L:Jean Sibelius – Piano Music Vol. 2 (Gimse) (2000) [FLAC] {Naxos 8.554808}33 – Kyllikki, Op. 41, Three Lyric Pieces- I. Largamente – Allegro.wav

Pre-gap length 0:00:05.60

Peak level 77.2 %
Extraction speed 4.5 X
Track quality 100.0 %
Test CRC 6EC2A867
Copy CRC 6EC2A867
Accurately ripped (confidence 4) [891FEAC5] (AR v1)
Copy OK

Track 34

Filename L:Jean Sibelius – Piano Music Vol. 2 (Gimse) (2000) [FLAC] {Naxos 8.554808}34 – Kyllikki, Op. 41, Three Lyric Pieces- II. Andantino.wav

Peak level 96.1 %
Extraction speed 5.1 X
Track quality 100.0 %
Test CRC B6503D0F
Copy CRC B6503D0F
Accurately ripped (confidence 4) [403D5EDD] (AR v1)
Copy OK

Track 35

Filename L:Jean Sibelius – Piano Music Vol. 2 (Gimse) (2000) [FLAC] {Naxos 8.554808}35 – Kyllikki, Op. 41, Three Lyric Pieces- III. Comodo.wav

Pre-gap length 0:00:03.08

Peak level 72.0 %
Extraction speed 4.9 X
Track quality 100.0 %
Test CRC 41949B6D
Copy CRC 41949B6D
Accurately ripped (confidence 4) [D6E22CB1] (AR v1)
Copy OK

All tracks accurately ripped

No errors occurred

End of status report

==== Log checksum 3A30E504C803314A2AF46E019AECFBB25BE2270FD4F10E1804AD486A374B8AC8 ====

Jean Sibelius - Piano Music Vol. 2 - Havard Gimse (2000) {Naxos 8.554808}

Jean Sibelius - Piano Music Vol. 2 - Havard Gimse (2000) {Naxos 8.554808}

see also:
Jean Sibelius – Piano Music Vol. 1 – Håvard Gimse (1999) {Naxos 8.553899}

NEXT -> Jean Sibelius – Piano Music Vol. 3 – Vol. 5 – Håvard Gimse {Naxos}

All thanks goes to the original releaser!

===

Jean Sibelius – Piano Music Vol. 2 – Havard Gimse (2000) {Naxos 8.554808} Download, Warez, DDL, Free, Full Album, Torrent, Legal.

Download