Janis Siegel – Sketches Of Broadway (2004) {Telarc}

Download
Janis Siegel - Sketches Of Broadway (2004) {Telarc}

Janis Siegel – Sketches Of Broadway (2004) {Telarc}
EAC Rip | FLAC with CUE and log | scans | 324 mb
MP3 CBR 320kbps | RAR | 152 mb
Genre: jazz, vocal jazz, pop

Sketches Of Broadway is the 2004 album by Manhattan Transfer vocalist Janis Siegel. This, which features John Patitucci, was released by Telarc.

Janis Siegel - Sketches Of Broadway (2004) {Telarc}

01. Show Me
02. Sorry-Grateful
03. It’s A Woman’s Prerogative
04. The Story Of Lucy And Jessie
05. Born Too Late
06. Out Of My Dreams/I Have Dreamed
07. I’ve Got The Sun In The Morning (And The Moon At Night)
08. The Surrey With The Fringe On Top/Stoned Soul Picnic
09. It Never Was You
10. My Best Beau
11. Make Someone Happy

Janis Siegel-vocals
Gil Goldstein-acoustic piano, Fender Rhodes, accordian
John Patitucci-acoustic & 6-string electric bass
Romero Lubambo-acoustic & electric guitar
Antonio Sanchez-drums
Stefon Harris-vibes

Produced & arranged by Gil Goldstein
Engineered & mixed by Dae Bennett
Assistant Engineer: Brian Dozoreth
Recorded at Bennett Studios, Englewood, NJ, 5-6 September, 2003
Mastered by Gene Paul

EAC Log
EAC extraction logfile from 27. June 2017, 2:29 for CD
Janis Siegel / Sketches Of Broadway

Used drive : TSSTcorpDVD+-RW TS-H653B Adapter: 2 ID: 0
Read mode : Secure with NO C2, accurate stream, disable cache
Read offset correction : 6
Overread into Lead-In and Lead-Out : No

Used output format : Internal WAV Routines
44.100 Hz; 16 Bit; Stereo

Other options :
Fill up missing offset samples with silence : Yes
Delete leading and trailing silent blocks : No
Native Win32 interface for Win NT & 2000

Track 1
Filename C:Documents and SettingscuntfistDesktopFLAC’s16Janis Siegel – Sketches Of Broadway (2004) [FLAC] {Telarc}1 – Show Me.wav

Pre-gap length 0:00:02.00

Peak level 99.9 %
Track quality 99.9 %
Test CRC 5D39AD75
Copy CRC 5D39AD75
Copy OK

Track 2
Filename C:Documents and SettingscuntfistDesktopFLAC’s16Janis Siegel – Sketches Of Broadway (2004) [FLAC] {Telarc}2 – Sorry-Grateful.wav

Pre-gap length 0:00:01.37

Peak level 99.9 %
Track quality 99.9 %
Test CRC 5A1B0847
Copy CRC 5A1B0847
Copy OK

Track 3
Filename C:Documents and SettingscuntfistDesktopFLAC’s16Janis Siegel – Sketches Of Broadway (2004) [FLAC] {Telarc}3 – It’s A Woman’s Prerogative.wav

Pre-gap length 0:00:01.44

Peak level 94.4 %
Track quality 100.0 %
Test CRC 621BC2B5
Copy CRC 621BC2B5
Copy OK

Track 4
Filename C:Documents and SettingscuntfistDesktopFLAC’s16Janis Siegel – Sketches Of Broadway (2004) [FLAC] {Telarc}4 – The Story Of Lucy And Jessie.wav

Pre-gap length 0:00:01.66

Peak level 89.0 %
Track quality 100.0 %
Test CRC AF10D070
Copy CRC AF10D070
Copy OK

Track 5
Filename C:Documents and SettingscuntfistDesktopFLAC’s16Janis Siegel – Sketches Of Broadway (2004) [FLAC] {Telarc}5 – Born Too Late.wav

Pre-gap length 0:00:00.46

Peak level 99.9 %
Track quality 99.9 %
Test CRC 778AA9AF
Copy CRC 778AA9AF
Copy OK

Track 6
Filename C:Documents and SettingscuntfistDesktopFLAC’s16Janis Siegel – Sketches Of Broadway (2004) [FLAC] {Telarc}6 – Out Of My Dreams, I Have Dreamed.wav

Pre-gap length 0:00:00.14

Peak level 100.0 %
Track quality 100.0 %
Test CRC B8FA16F7
Copy CRC B8FA16F7
Copy OK

Track 7
Filename C:Documents and SettingscuntfistDesktopFLAC’s16Janis Siegel – Sketches Of Broadway (2004) [FLAC] {Telarc}7 – I’ve Got The Sun In The Morning (And The Moon At Night).wav

Pre-gap length 0:00:00.96

Peak level 99.9 %
Track quality 100.0 %
Test CRC 6A1D9436
Copy CRC 6A1D9436
Copy OK

Track 8
Filename C:Documents and SettingscuntfistDesktopFLAC’s16Janis Siegel – Sketches Of Broadway (2004) [FLAC] {Telarc}8 – The Surrey With The Fringe On Top, Stoned Soul Picnic.wav

Pre-gap length 0:00:00.06

Peak level 99.9 %
Track quality 100.0 %
Test CRC 523DE971
Copy CRC 523DE971
Copy OK

Track 9
Filename C:Documents and SettingscuntfistDesktopFLAC’s16Janis Siegel – Sketches Of Broadway (2004) [FLAC] {Telarc}9 – It Never Was You.wav

Pre-gap length 0:00:01.16

Peak level 100.0 %
Track quality 99.9 %
Test CRC 99AE088C
Copy CRC 99AE088C
Copy OK

Track 10
Filename C:Documents and SettingscuntfistDesktopFLAC’s16Janis Siegel – Sketches Of Broadway (2004) [FLAC] {Telarc}10 – My Best Beau.wav

Pre-gap length 0:00:01.17

Peak level 99.9 %
Track quality 100.0 %
Test CRC F1D8A131
Copy CRC F1D8A131
Copy OK

Track 11
Filename C:Documents and SettingscuntfistDesktopFLAC’s16Janis Siegel – Sketches Of Broadway (2004) [FLAC] {Telarc}11 – Make Someone Happy.wav

Pre-gap length 0:00:02.37

Peak level 99.9 %
Track quality 100.0 %
Test CRC 89E01979
Copy CRC 89E01979
Copy OK

No errors occured

End of status report

Janis Siegel - Sketches Of Broadway (2004) {Telarc}

Janis Siegel – Sketches Of Broadway (2004) {Telarc} Download, Warez, DDL, Free, Full Album, Torrent, Legal.

Download