James Taylor – Walking Man (1974) [Audio Fidelity, AFZ 109]

Download
James Taylor - Walking Man (1974) [Audio Fidelity, AFZ 109]

James Taylor – Walking Man (1974)
EAC | Flac(Image) + Cue + Log & MP3 CBR 320Kbps
2011 | Audio Fidelity, AFZ 109 | ~ 193 or 89 Mb | Scans Included
Folk Rock, Acoustic, Soft Rock

One Man Dog drastically lowered expectations for a new James Taylor album, and those expectations were almost met by Walking Man, a more considered effort than its predecessor that managed to be just as trivial but even less interesting. As a result, it became the worst-selling album of Taylor’s career. Somehow, a songwriter who had seemed in 1970 to have as precise an idea of the national mood as Bob Dylan had had in 1965 now seemed to be a man without a country. Instead, Walking Man, which began with Taylor asking, "Who is this walking man?" and ended with him commenting, "It’s really not so bad to be fading away," sounded like the statement of a songwriter who either had nothing to say or didn’t know how to say it.

by William Ruhlmann, allmusic

James Taylor – Walking Man (1974):

James Taylor - Walking Man (1974) [Audio Fidelity, AFZ 109]

Tracklist:

01. Walking Man [03:34]
02. Rock ‘n’ Roll Is Music Now [03:28]
03. Let It All Fall Down [03:34]
04. Me And My Guitar [03:34]
05. Daddy’s Baby [02:39]
06. Ain’t No Song [03:31]
07. Hello Old Friend [02:48]
08. Migration [03:17]
09. The Promised Land [04:04]
10. Fading Away [03:34]

EAC Log
Exact Audio Copy V0.99 prebeta 5 from 4. May 2009

EAC extraction logfile from 11. March 2014, 16:17

JAMES TAYLOR / Walking Man ( AFZ 109 )

Used drive : ASUS DRW-24B3ST Adapter: 4 ID: 0

Read mode : Secure
Utilize accurate stream : Yes
Defeat audio cache : Yes
Make use of C2 pointers : No

Read offset correction : 6
Overread into Lead-In and Lead-Out : No
Fill up missing offset samples with silence : Yes
Delete leading and trailing silent blocks : No
Null samples used in CRC calculations : Yes
Used interface : Native Win32 interface for Win NT & 2000

Used output format : User Defined Encoder
Selected bitrate : 1024 kBit/s
Quality : High
Add ID3 tag : No
Command line compressor : C:Program Files (x86)EACWVwavpack.exe
Additional command line options : -h -hh -m %s %d

TOC of the extracted CD

Track | Start | Length | Start sector | End sector
––––––––––––––––––––––––––––-
1 | 0:00.00 | 3:34.16 | 0 | 16065
2 | 3:34.16 | 3:28.19 | 16066 | 31684
3 | 7:02.35 | 3:34.69 | 31685 | 47803
4 | 10:37.29 | 3:34.59 | 47804 | 63912
5 | 14:12.13 | 2:39.65 | 63913 | 75902
6 | 16:52.03 | 3:31.27 | 75903 | 91754
7 | 20:23.30 | 2:48.39 | 91755 | 104393
8 | 23:11.69 | 3:17.02 | 104394 | 119170
9 | 26:28.71 | 4:04.57 | 119171 | 137527
10 | 30:33.53 | 3:34.19 | 137528 | 153596

Range status and errors

Selected range

Filename G:24 KT GOLDJAMES TAYLOR – Walking Man (1974) (US 2011 Audio Fidelity • AFZ 109)JAMES TAYLOR – Walking Man ( AFZ 109 ).wav

Peak level 100.0 %
Range quality 99.9 %
Test CRC 80264ECB
Copy CRC 80264ECB
Copy OK

No errors occurred

AccurateRip summary

Track 1 accurately ripped (confidence 5) [80F3758D]
Track 2 accurately ripped (confidence 5) [57027081]
Track 3 accurately ripped (confidence 5) [0CD00F79]
Track 4 accurately ripped (confidence 5) [D67B62AF]
Track 5 accurately ripped (confidence 5) [5EC73594]
Track 6 accurately ripped (confidence 5) [8EA52A25]
Track 7 accurately ripped (confidence 5) [DA106E12]
Track 8 accurately ripped (confidence 5) [6B141BCB]
Track 9 accurately ripped (confidence 5) [1B7D2A74]
Track 10 accurately ripped (confidence 5) [7539D841]

All tracks accurately ripped

End of status report

DR Log
foobar2000 1.2.9 / Dynamic Range Meter 1.1.1
log date: 2016-12-22 02:29:03

––––––––––––––––––––––––––––––––––––––––
Analyzed: JAMES TAYLOR / Walking Man ( AFZ 109 )
––––––––––––––––––––––––––––––––––––––––

DR Peak RMS Duration Track
––––––––––––––––––––––––––––––––––––––––
DR14 -0.29 dB -17.84 dB 3:34 01-Walking Man
DR12 -1.24 dB -16.29 dB 3:28 02-Rock ‘n’ Roll Is Music Now
DR13 0.00 dB -15.69 dB 3:35 03-Let It All Fall Down
DR13 -0.36 dB -16.70 dB 3:35 04-Me And My Guitar
DR12 -4.26 dB -19.51 dB 2:40 05-Daddy’s Baby
DR13 -1.27 dB -17.57 dB 3:31 06-Ain’t No Song
DR12 -1.23 dB -18.49 dB 2:49 07-Hello Old Friend
DR11 -1.19 dB -15.89 dB 3:17 08-Migration
DR11 -0.83 dB -15.00 dB 4:05 09-The Promised Land
DR12 -0.04 dB -15.97 dB 3:34 10-Fading Away
––––––––––––––––––––––––––––––––––––––––

Number of tracks: 10
Official DR value: DR12

Samplerate: 44100 Hz
Channels: 2
Bits per sample: 16
Bitrate: 735 kbps
Codec: FLAC

CUETools Log
[CUETools log; Date: 22.12.2016 2:28:54; Version: 2.1.4]
[CTDB TOCID: j3quyeZsl1.T85CqDOr0nm5Pe5M-] found.
Track | CTDB Status
1 | (17/18) Accurately ripped
2 | (17/18) Accurately ripped
3 | (17/18) Accurately ripped
4 | (17/18) Accurately ripped
5 | (17/18) Accurately ripped
6 | (17/18) Accurately ripped
7 | (17/18) Accurately ripped
8 | (17/18) Accurately ripped
9 | (17/18) Accurately ripped
10 | (17/18) Accurately ripped
[AccurateRip ID: 000cd858-00665bf2-7807ff0a] found.
Track [ CRC | V2 ] Status
01 [80f3758d|9f9e99e2] (05+31/36) Accurately ripped
02 [57027081|15fb6d3a] (05+31/36) Accurately ripped
03 [0cd00f79|e2048f95] (05+31/36) Accurately ripped
04 [d67b62af|4f2a0fe8] (05+31/36) Accurately ripped
05 [5ec73594|b39cefb3] (05+31/36) Accurately ripped
06 [8ea52a25|1904c5be] (05+31/36) Accurately ripped
07 [da106e12|2c71ce71] (05+31/36) Accurately ripped
08 [6b141bcb|d328b281] (05+31/36) Accurately ripped
09 [1b7d2a74|41b95433] (05+31/36) Accurately ripped
10 [7539d841|0194247c] (05+31/36) Accurately ripped

Track Peak [ CRC32 ] [W/O NULL] [ LOG ]
– 100,0 [80264ECB] [74B05AD5] CRC32
01 96,7 [F63A19C5] [5D41A04B]
02 86,7 [7ED00A6F] [4B396EC5]
03 100,0 [3E14F93C] [5C425AAB]
04 95,9 [91127BAD] [700952B1]
05 61,2 [7E323E46] [3B1F8F26]
06 86,3 [A8F795A0] [2DFC4B9D]
07 86,8 [E9358D4E] [3496DF4C]
08 87,1 [29E64AB8] [7F663655]
09 90,9 [1545BEAA] [75D7EDE9]
10 99,5 [46F8A02D] [D69D8A2C]

James Taylor - Walking Man (1974) [Audio Fidelity, AFZ 109]

All thanks go to the original releaser

Download James Taylor – Walking Man (1974):

James Taylor – Walking Man (1974) [Audio Fidelity, AFZ 109] Download, Warez, DDL, Free, Full Album, Torrent, Legal.

Download