James Ehnes – Mendelssohn: Violin Concerto, Octet (2010) (Repost)

Download
James Ehnes - Mendelssohn: Violin Concerto, Octet (2010) (Repost)

James Ehnes – Mendelssohn: Violin Concerto, Octet (2010)
EAC | APE (image+.cue, log) | Covers Included | 57:31 | 278 MB
Genre: Classical | Label: ONYX | Catalog: LC 19017

The last of his orchestral compositions and one of his most enduringly popular pieces, Mendelssohn’s violin concerto is as much a crowd-pleaser now as it was when premiered by Ferdinand David and the Leipzig Gewandhaus Orchestra in 1845. Its unassuming focus on melody and dynamic interaction between soloist and orchestra – rather than merely on technical feats and virtuosic showmanship – ensures its place at the heart of the violin concerto repertoire. On the opposite end of Mendelssohn’s short career is the Op. 20 Octet, a vibrant, pioneering work completed when Mendelssohn was all of 16 years old. Violinist James Ehnes joins Vladimir Ashkenazy and the Philharmonia Orchestra for a superb performance of the concerto. Ehnes quickly demonstrates why he is deserving of all the praise that has been heaped upon him. His playing combines a flawless, effortless technique, with a vibrant, robust tone, and a keen sense a pacing ad dynamics that yields a captivating, gripping performance. Ashkenazy leads the Philharmonia in a performance that is not a mere accompaniment, but rather a true, tight-knit collaboration with the soloist. Ehnes joins members of the Seattle Chamber Music Society for the Octet. Here, the same clarity and transparency of tone achieved in the concerto is somewhat lacking; the inner voices are sometimes dulled and not given their due as an equal partner. Still, the album is well worthwhile for the concerto alone.

AllMusic

James Ehnes - Mendelssohn: Violin Concerto, Octet (2010) (Repost)

Track List:

Violin Concerto – 26:37
1. I. Allegro molto appassionato – 12:45
2. II. Andante – 8:16
3. III. Allegretto non troppo – Allegro molto vivace – 5:35

Octet in E flat op.20 – 30:44
4. I. Allegro moderato ma con fuoco – 13:49
5. II. Andante – 6:31
6. III. Scherzo – 4:29
7. IV. Presto – 5:53

Performers:
James Ehnes – violin
Philharmonia Orchestra/Vladimir Ashkenazy (1-3)
Musicians of the Seattle Chamber Music Society:
James Ehnes, Erin Keefe, Andrew Wan, Augustin Hadelich – violins (4-7)
Cynthia Phelps, Richard O’Neill – violas (4-7)
Robert deMaine, Edward Arron – cellos (4-7)

EAC Log
Exact Audio Copy V0.99 prebeta 4 from 23. January 2008

EAC extraction logfile from 3. February 2011, 10:08

James Ehnes · Vladimir Ashkenazy · Philharmonia Orchestra · Seattle Chamber Music Society / Mendelssohn: Violin Concerto · Octet

Used drive : _NEC DVD_RW ND-2510A Adapter: 1 ID: 1

Read mode : Secure
Utilize accurate stream : Yes
Defeat audio cache : Yes
Make use of C2 pointers : No

Read offset correction : 48
Overread into Lead-In and Lead-Out : No
Fill up missing offset samples with silence : Yes
Delete leading and trailing silent blocks : No
Null samples used in CRC calculations : Yes
Used interface : Native Win32 interface for Win NT & 2000

Used output format : Internal WAV Routines
Sample format : 44.100 Hz; 16 Bit; Stereo

TOC of the extracted CD

Track | Start | Length | Start sector | End sector
––––––––––––––––––––––––––––-
1 | 0:00.00 | 12:45.27 | 0 | 57401
2 | 12:45.27 | 8:16.53 | 57402 | 94654
3 | 21:02.05 | 5:44.45 | 94655 | 120499
4 | 26:46.50 | 13:49.64 | 120500 | 182738
5 | 40:36.39 | 6:31.64 | 182739 | 212127
6 | 47:08.28 | 4:29.27 | 212128 | 232329
7 | 51:37.55 | 5:53.25 | 232330 | 258829

Range status and errors

Selected range

Filename C:Documents and SettingsIGORBureauJames Ehnes · Vladimir Ashkenazy · Philharmonia Orchestra · Seattle Chamber Music Society – Mendelssohn Violin Concerto · Octet.wav

Peak level 95.4 %
Range quality 100.0 %
Copy CRC 7A450CC3
Copy OK

No errors occurred

AccurateRip summary

Track 1 not present in database
Track 2 not present in database
Track 3 not present in database
Track 4 not present in database
Track 5 not present in database
Track 6 not present in database
Track 7 not present in database

None of the tracks are present in the AccurateRip database

End of status report

CUETools Log
[CUETools log; Date: 11.10.2017 10:31:43; Version: 2.1.5]
[CTDB TOCID: s17h00VP4lIJN1pc5RYZcI7rlVs-] found.
Track | CTDB Status
1 | (16/16) Accurately ripped
2 | (16/16) Accurately ripped
3 | (16/16) Accurately ripped
4 | (16/16) Accurately ripped
5 | (16/16) Accurately ripped
6 | (16/16) Accurately ripped
7 | (16/16) Accurately ripped
[AccurateRip ID: 0011adb8-00673697-650d7b07] found.
Track [ CRC | V2 ] Status
01 [4f678743|acfb4eab] (03+14/17) Accurately ripped
02 [81a5cebc|8fd8bc4f] (03+14/17) Accurately ripped
03 [e687900f|951732db] (03+14/17) Accurately ripped
04 [2a42ae63|6894e547] (03+14/17) Accurately ripped
05 [9b4afb39|c855fe07] (03+14/17) Accurately ripped
06 [edfc633b|5cd7204e] (03+14/17) Accurately ripped
07 [0907beb6|7b47ffda] (03+14/17) Accurately ripped

Track Peak [ CRC32 ] [W/O NULL] [ LOG ]
– 95,4 [7A450CC3] [38B7336F] CRC32
01 90,7 [FD694736] [1855378C]
02 69,6 [C7DDFB96] [E2482DB6]
03 95,4 [FA40D5BA] [D949321A]
04 77,4 [2BD57B0D] [F39E5533]
05 72,1 [C94ABEA8] [D1997D9D]
06 21,1 [4A636F0B] [6EE9AE73]
07 88,9 [2FC64229] [A47516E8]

Thanks to the Original ripper iviolon!

Download:

James Ehnes – Mendelssohn: Violin Concerto, Octet (2010) (Repost) Download, Warez, DDL, Free, Full Album, Torrent, Legal.

Download