Jack Wagner – All I Need (1984) [1999, Japanese Reissue] | ViralVideoPk

Daily Dose of Free Downloads

Jack Wagner – All I Need (1984) [1999, Japanese Reissue]

Download

Jack Wagner - All I Need (1984) [1999, Japanese Reissue]

Jack Wagner – All I Need (1984) [1999, Japanese Reissue]
Pop/Rock, AOR, AC | EAC Rip | FLAC, Img+CUE+LOG+Scans-300dpi (JPEG) | 34:15 Min | 259,59 Mb
Label: Warner Music Japan Inc. (Japan) | Released: 1999-07-28 (1984)
Jack Wagner - All I Need (1984) [1999, Japanese Reissue]

All I Need is the debut studio album from General Hospital star Jack Wagner. Quincy Jones protegé Glen Ballard (who would go on to write with and produce Wilson Phillips six years later, and have massive success in the 1990s with Alanis Morissette’s Jagged Little Pill) and Clif Magness (who also worked in a musical context with Ballard on Wilson Phillips’ debut album) oversaw the project, co-writing some of the material as well as playing some instruments. Despite an ability to play guitar, and despite playing in several live shoots for the title track, Wagner himself only sang on the disc. The album featured a huge hit in the title track, which climbed all the way to number two and stayed there for two weeks; it was also a number one AC hit for two weeks. Rare for the time it was released, “All I Need” was notable in that the song was able to climb the charts while not having the assistance of an accompanying music video. For the album’s second single, “Premonition”, a music video was made and it debuted on NBC’s Friday Night Videos in January, 1985. A third and final single, “Lady of My Heart”, was released in the spring of 1985 and reached #76 on the Billboard Hot 100. “Lady of My Heart” is notable for being used on General Hospital as the love theme of Wagner’s character Frisco and Felicia (played by Kristina Malandro). Wagner would later marry Malandro and have two children together, Peter and Harrison.

~Wikipedia~
Jack Wagner - All I Need (1984) [1999, Japanese Reissue]

Jack Wagner - All I Need (1984) [1999, Japanese Reissue]

Release of this album: 1984 [LP Qwest Records, Cat.# 25214-1, USA]
Release of this CD: 1999, July, 28 [CD Warner Music Japan Inc. (Japan), Cat.# WPCR-10481 / EAN: 4943674009350]
℗ 1984 WEA International Inc.
© 1984 WEA Records Ltd.
Manufactured and Distributed by Warner Music Japan Inc.
Printed in Japan

Credits:
Backing Vocals – Clif Magness (tracks: 1, 4, 5, 6, 7, 9), Rosemary Butler (tracks: 5, 6, 7)
Bass – Davey Faragher (tracks: 2 to 8, 10)
Drums – Pat Mastelotto (tracks: 2 to 4, 8, 10)
Guitar – Clif Magness (tracks: 2 to 9)
Synthesizer – John Van Tongeren (tracks: 1, 6, 7, 9)

Tracklist:

01. Premonition (03:17)
(Tom Keane, Clif Magness, Mark Mueller)
02. What You Don’t Know (03:33)
(Mark Mueller, Mark Bryant)
03. Whenever Hearts Collide (03:38)
(Matthew Garey, Ellen Schwartz, Roger Bruno)
04. Fighting The Nights (03:07)
(Clif Magness, Glen Ballard)
05. All I Need (03:31)
(Clif Magness, Glen Ballard, David Pack)
06. Make Me Believe It (03:03)
(Clif Magness, Mark Mueller)
07. Sneak Attack (03:16)
(Roy Freeland, Peter Leinheiser, Hummie Mann)
08. After The Fact (04:05)
(Jerome Stocco)
09. Tell Him (That You Won’t Go) (02:44)
(Clif Magness, Ellen Schwartz, Roger Bruno)
10. Lady Of My Heart (04:02)
(Glen Ballard, David Foster, Jay Graydon)

EAC log
Exact Audio Copy V1.1 from 23. June 2015

Отчёт EAC об извлечении, выполненном 13. декабря 2016, 19:20

Jack Wagner / All I Need (WPCR-10481)

Дисковод: PLEXTOR BD-R PX-B950SA Adapter: 1 ID: 0

Режим чтения : Достоверность
Использование точного потока : Да
Отключение кэша аудио : Да
Использование указателей C2 : Нет

Коррекция смещения при чтении : 6
Способность читать области Lead-in и Lead-out : Нет
Заполнение пропущенных сэмплов тишиной : Да
Удаление блоков с тишиной в начале и конце : Нет
При вычислениях CRC использовались нулевые сэмплы : Да
Интерфейс : Встроенный Win32-интерфейс для Win NT/2000

Выходной формат : Пользовательский кодировщик
Выбранный битрейт : 1024 kBit/s
Качество : Высокий
Добавление ID3-тега : Нет
Утилита сжатия : C:Program Files (x86)Exact Audio CopyFLACFLAC.EXE
Дополнительные параметры : -6 -V -T "ARTIST=%artist%" -T "TITLE=%title%" -T "ALBUM=%albumtitle%" -T "DATE=%year%" -T "TRACKNUMBER=%tracknr%" -T "GENRE=%genre%" -T "COMMENT=%comment%" -T "BAND=%albuminterpret%" -T "ALBUMARTIST=%albuminterpret%" -T "COMPOSER=%composer%" %haslyrics%–tag-from-file=LYRICS="%lyricsfile%"%haslyrics% -T "DISCNUMBER=%cdnumber%" -T "TOTALDISCS=%totalcds%" -T "TOTALTRACKS=%numtracks%" %hascover%–picture="%coverfile%"%hascover% %source% -o %dest%

TOC извлечённого CD

Трек | Старт | Длительность | Начальный сектор | Конечный сектор
––––––––––––––––––––––––––––––––––-
1 | 0:00.00 | 3:16.45 | 0 | 14744
2 | 3:16.45 | 3:33.25 | 14745 | 30744
3 | 6:49.70 | 3:38.22 | 30745 | 47116
4 | 10:28.17 | 3:06.65 | 47117 | 61131
5 | 13:35.07 | 3:31.00 | 61132 | 76956
6 | 17:06.07 | 3:02.43 | 76957 | 90649
7 | 20:08.50 | 3:15.67 | 90650 | 105341
8 | 23:24.42 | 4:05.35 | 105342 | 123751
9 | 27:30.02 | 2:43.50 | 123752 | 136026
10 | 30:13.52 | 4:02.05 | 136027 | 154181

Характеристики диапазона извлечения и сообщения об ошибках

Выбранный диапазон

Имя файла G:RIPJack Wagner 1984 Japanese Pressing FLAC by alzalJack Wagner – All I Need (WPCR-10481).wav

Пиковый уровень 98.8 %
Скорость извлечения 7.6 X
Качество диапазона 99.9 %
CRC теста 0C76B675
CRC копии 0C76B675
Копирование… OK

Ошибок не произошло

AccurateRip: сводка

Трек 1 : извлечено точно (доверие 5) [9A981F9F] (AR v2)
Трек 2 : извлечено точно (доверие 5) [8899B542] (AR v2)
Трек 3 : извлечено точно (доверие 5) [1CBC52E4] (AR v2)
Трек 4 : извлечено точно (доверие 5) [D9EFF478] (AR v2)
Трек 5 : извлечено точно (доверие 5) [7898BE23] (AR v2)
Трек 6 : извлечено точно (доверие 5) [14E995CA] (AR v2)
Трек 7 : извлечено точно (доверие 5) [DE30BAFD] (AR v2)
Трек 8 : извлечено точно (доверие 5) [4B4963EC] (AR v2)
Трек 9 : извлечено точно (доверие 5) [B02785D4] (AR v2)
Трек 10 : извлечено точно (доверие 5) [7BEEA202] (AR v2)

Все треки извлечены точно

Конец отчёта

–– CUETools DB Plugin V2.1.6

[CTDB TOCID: boZs4nfHTK2gv6gn38QbiMOJ9ys-] found
Submit result: boZs4nfHTK2gv6gn38QbiMOJ9ys- has been confirmed
Track | CTDB Status
1 | (5/5) Accurately ripped
2 | (5/5) Accurately ripped
3 | (5/5) Accurately ripped
4 | (5/5) Accurately ripped
5 | (5/5) Accurately ripped
6 | (5/5) Accurately ripped
7 | (5/5) Accurately ripped
8 | (5/5) Accurately ripped
9 | (5/5) Accurately ripped
10 | (5/5) Accurately ripped

==== Контрольная сумма отчёта 14BADC4E33758DC0E19C017E69974CE3645292804B9CE92DCA1FC85510259317 ====

Dynamic Range Meter log
––––––––––––––––––––––––––––––––––––––––
Analyzed: Jack Wagner / All I Need (WPCR-10481)
––––––––––––––––––––––––––––––––––––––––

DR Peak RMS Duration Track
––––––––––––––––––––––––––––––––––––––––
DR7 -0.10 dB -9.24 dB 3:17 01-Premonition
DR7 -0.50 dB -9.40 dB 3:33 02-What You Don’t Know
DR8 -0.10 dB -10.83 dB 3:38 03-Whenever Hearts Collide
DR8 -0.53 dB -10.40 dB 3:07 04-Fighting The Nights
DR8 -0.50 dB -11.33 dB 3:31 05-All I Need
DR7 -0.44 dB -8.88 dB 3:03 06-Make Me Believe It
DR7 -0.45 dB -9.65 dB 3:16 07-Sneak Attack
DR8 -0.42 dB -10.21 dB 4:05 08-After The Fact
DR8 -0.42 dB -10.05 dB 2:44 09-Tell Him (That You Won’t Go)
DR9 -0.67 dB -14.30 dB 4:02 10-Lady Of My Heart
––––––––––––––––––––––––––––––––––––––––

Number of tracks: 10
Official DR value: DR8

Samplerate: 44100 Hz
Channels: 2
Bits per sample: 16
Bitrate: 947 kbps
Codec: FLAC
================================================================================

All thanks to alzal

Jack Wagner – All I Need (1984) [1999, Japanese Reissue] Download, Warez, DDL, Free, Full Album, Torrent, Legal.

Download


  • Recent Posts

  • Recent Tags