Jack Russell’s Great White – He Saw It Comin' (2017)

Download
Jack Russell’s Great White - He Saw It Comin' (2017)

Jack Russell’s Great White – He Saw It Comin’ (2017)
EAC Rip | FLAC (Img) + Cue + Log ~ 331 Mb | MP3 CBR320 ~ 128 Mb
Scans Included (JPG, 300 dpi) | RAR 5% Recovery
Hard Rock, AOR | Frontiers Records / Irond #IROND CD 17-1897

Jack Russell’s Great White represents the next phase of a legacy. Rather than look backwards and merely attempt to relive the multi-platinum hard rock entity s storied origins in Great White, Jack Russell set his sights on the future. Now, with old Great White bandmate, Tony Montana in tow, this group has a sharp, soaring and slick new album ready, boasting the bluesy hard rock stomp that made Russell a star in the first place.

Jack Russell’s Great White - He Saw It Comin' (2017)

Official Website | Wiki | Discogs

***************

Jack Russell’s Great White - He Saw It Comin' (2017)

Track List:

01. Sign Of The Times [3:37]
02. She Moves Me [3:34]
03. Crazy [3:40]
04. Love Don’t Live Here [3:38]
05. My Addiction [4:14]
06. Anything For You [3:43]
07. He Saw It Comin’ [4:28]
08. Don’t Let Me Go [3:07]
09. Spy Vs Spy [3:45]
10. Blame It On The Night [3:45]
11. Godspeed [2:59]

Personnel:
Jack Russell – Vocals
Tony Montana – Guitar, keyboards
Robby Lochner – Guitar, piano, backing vocal
Dan McNay – Bass, backing vocal
Dicki Fliszar – Drums, backing vocal

EAC Log
Exact Audio Copy V1.1 from 23. June 2015

EAC extraction logfile from 3. February 2017, 23:35

Jack Russell’s Great White / He Saw it Comin’ (IrondCD17-1897)

Used drive : PIONEER BD-RW BDR-209D Adapter: 0 ID: 5

Read mode : Secure
Utilize accurate stream : Yes
Defeat audio cache : Yes
Make use of C2 pointers : No

Read offset correction : 667
Overread into Lead-In and Lead-Out : No
Fill up missing offset samples with silence : Yes
Delete leading and trailing silent blocks : No
Null samples used in CRC calculations : Yes
Used interface : Installed external ASPI interface

Used output format : User Defined Encoder
Selected bitrate : 768 kBit/s
Quality : High
Add ID3 tag : No
Command line compressor : C:Program Files (x86)Exact Audio CopyFLACFLAC.EXE
Additional command line options : -6 -V -T "ARTIST=%artist%" -T "TITLE=%title%" -T "ALBUM=%albumtitle%" -T "DATE=%year%" -T "TRACKNUMBER=%tracknr%" -T "GENRE=%genre%" -T "COMMENT=%comment%" -T "BAND=%albuminterpret%" -T "ALBUMARTIST=%albuminterpret%" -T "COMPOSER=%composer%" %haslyrics%–tag-from-file=LYRICS="%lyricsfile%"%haslyrics% -T "DISCNUMBER=%cdnumber%" -T "TOTALDISCS=%totalcds%" -T "TOTALTRACKS=%numtracks%" %hascover%–picture="%coverfile%"%hascover% %source% -o %dest%

TOC of the extracted CD

Track | Start | Length | Start sector | End sector
––––––––––––––––––––––––––––-
1 | 0:00.00 | 3:37.00 | 0 | 16274
2 | 3:37.00 | 3:34.16 | 16275 | 32340
3 | 7:11.16 | 3:40.28 | 32341 | 48868
4 | 10:51.44 | 3:38.05 | 48869 | 65223
5 | 14:29.49 | 4:13.38 | 65224 | 84236
6 | 18:43.12 | 3:42.47 | 84237 | 100933
7 | 22:25.59 | 4:28.23 | 100934 | 121056
8 | 26:54.07 | 3:07.37 | 121057 | 135118
9 | 30:01.44 | 3:44.57 | 135119 | 151975
10 | 33:46.26 | 3:44.71 | 151976 | 168846
11 | 37:31.22 | 2:58.47 | 168847 | 182243

Range status and errors

Selected range

Filename E:MUSICJack Russell’s Great White – He Saw it Comin’ (IrondCD17-1897).wav

Peak level 100.0 %
Extraction speed 6.7 X
Range quality 99.9 %
Test CRC 3685DC18
Copy CRC 3685DC18
Copy OK

No errors occurred

AccurateRip summary

Track 1 not present in database
Track 2 not present in database
Track 3 not present in database
Track 4 not present in database
Track 5 not present in database
Track 6 not present in database
Track 7 not present in database
Track 8 not present in database
Track 9 not present in database
Track 10 not present in database
Track 11 not present in database

None of the tracks are present in the AccurateRip database

End of status report

==== Log checksum 7E14A48616BAA25F185BAFA0FCB30BDC2D575997FEBE8FA7107312461654F4B8 ====

DR Log
foobar2000 1.2.6 / Dynamic Range Meter 1.1.1
log date: 2017-02-10 17:55:14

––––––––––––––––––––––––––––––––––––––––
Analyzed: Jack Russell’s Great White / He Saw it Comin’ (IrondCD17-1897)
––––––––––––––––––––––––––––––––––––––––

DR Peak RMS Duration Track
––––––––––––––––––––––––––––––––––––––––
DR9 0.00 dB -10.39 dB 3:37 01-01. Sign Of The Times
DR7 0.00 dB -7.63 dB 3:34 02-02. She Moves Me
DR8 0.00 dB -8.97 dB 3:40 03-03. Crazy
DR7 0.00 dB -8.62 dB 3:38 04-04. Love Don’t Live Here
DR8 0.00 dB -9.23 dB 4:14 05-05. My Addiction
DR8 0.00 dB -11.08 dB 3:43 06-06. Anything For You
DR8 0.00 dB -10.57 dB 4:28 07-07. He Saw It Comin’
DR7 0.00 dB -8.62 dB 3:07 08-08. Don’t Let Me Go
DR7 -0.10 dB -8.95 dB 3:45 09-09. Spy Vs Spy
DR7 0.00 dB -8.75 dB 3:45 10-10. Blame It On The Night
DR9 -0.02 dB -10.10 dB 2:59 11-11. Godspeed
––––––––––––––––––––––––––––––––––––––––

Number of tracks: 11
Official DR value: DR8

Samplerate: 44100 Hz
Channels: 2
Bits per sample: 16
Bitrate: 985 kbps
Codec: FLAC
================================================================================

CUETools Log
[CUETools log; Date: 10.02.2017 17:55:15; Version: 2.1.5]
[CTDB TOCID: Y1AQ7o8o4bfSJfHLnIFzYu8WLDI-] disk not present in database.
[AccurateRip ID: 0010e4b3-0092a98e-80097d0b] disk not present in database.

Track Peak [ CRC32 ] [W/O NULL] [ LOG ]
– 100,0 [3685DC18] [B9367E96] CRC32
01 100,0 [53A70895] [D6A34362]
02 100,0 [81DE79EB] [CB55A37A]
03 100,0 [B41E709E] [BA180C06]
04 100,0 [E76A76CC] [434301E5]
05 100,0 [B081B39B] [465091B2]
06 100,0 [1984FA5A] [942CA4A4]
07 100,0 [38D9A1BB] [965034E6]
08 100,0 [F4F47734] [6B3DEEC9]
09 98,8 [AA937CB8] [D6F8D1FD]
10 100,0 [A4FA4494] [6EA5F999]
11 99,7 [8F7BE33F] [32D4D00B]

Jack Russell’s Great White - He Saw It Comin' (2017)

Jack Russell’s Great White - He Saw It Comin' (2017)

All thanks go to HaRD

> Visit my blog <

Jack Russell’s Great White – He Saw It Comin' (2017) Download, Warez, DDL, Free, Full Album, Torrent, Legal.

Download