Jack Jones – Greatest Hits (1995)

Download
Jack Jones - Greatest Hits (1995)

Jack Jones – Greatest Hits (1995)
EAC | FLAC | Tracks (Cue&Log) ~ 299 Mb (incl 5%) | Mp3 (CBR320) ~ 128 Mb (incl 5%) | Scans included
Genre: Traditional Pop, Vocal Pop, Easy Listening | Label: MCA | # MCAD-11301 | Time: 00:47:36

Featuring 18 songs, including "The Impossible Dream", "Call Me Irresponsible", and "Lollipops and Roses", Greatest Hits is the definitive Jack Jones collection.

Stephen Thomas Erlewine, Allmusic.com

A two-time Grammy winner in the early ’60s, Jack Jones has made a fine living since, blending vocal standards from traditional pop with swinging renditions of contemporary pop and rock hits. Born in Los Angeles in 1938, Jones was the son of the romantic lead actor and recording artist Allan Jones (who had a hit with "The Donkey Serenade") and actress Irene Hervey. He began studying the vocal arts in high school, and after graduation joined his father’s successful act on the nightclub circuit. Jack left less than a year later, determined to make it on his own, and began playing small clubs around the country.

Several years after forging his independence, Jack Jones was spotted in San Francisco and signed to Kapp Records in 1961. Though he was called into the army soon after, he managed to record the single "Lollipops and Roses," a moderate 1962 hit which earned him a Grammy for Best Performance by a Male Singer. Jones earned several other awards during the mid-’60s, including another Grammy for his best-known hit, the Burt Bacharach-Hal David chestnut "Wives and Lovers." Though he only recorded one more single that performed as well, 1965’s "The Race Is On," Jones became a successful LP seller, touring artist (especially in Great Britain), and occasional television performer. He moved to RCA Records in 1967, and began to add to his repertoire rock songs such as "Light My Fire" and "I Think It’s Gonna Rain Today." Jack Jones also mounted a successful act in Las Vegas during the 1980s and ’90s.

John Bush, Allmusic.com

Jack Jones - Greatest Hits (1995)

Jack Jones Website
Jack Jones at Wiki

Tracklist:

01. Lollipops And Roses (04:06)
02. Wives And Lovers (02:31)
03. Call Me Irresponsible (03:13)
04. A Lot Of Livin’ To Do (02:33)
05. Real Live Girl (02:13)
06. Love With The Proper Stranger (02:26)
07. She Loves Me (02:44)
08. You’re My Girl (02:56)
09. The Race Is On (01:47)
10. And I Love Her (02:50)
11. Dear Heart (02:37)
12. I Can’t Believe I’m Losing You (02:42)
13. You’re Sensational (02:28)
14. My Best Girl (02:23)
15. A Day In The Life Of A Fool (02:21)
16. Alfie (02:34)
17. Lady (02:44)
18. The Impossible Dream (02:19)

EAC log
Exact Audio Copy V1.0 beta 3 from 29. August 2011

EAC extraction logfile from 8. October 2014, 9:57

Jack Jones / Greatest Hits

Used drive : HL-DT-STDVDRAM GSA-T50L Adapter: 1 ID: 0

Read mode : Secure
Utilize accurate stream : Yes
Defeat audio cache : No
Make use of C2 pointers : No

Read offset correction : 667
Overread into Lead-In and Lead-Out : No
Fill up missing offset samples with silence : Yes
Delete leading and trailing silent blocks : No
Null samples used in CRC calculations : Yes
Used interface : Native Win32 interface for Win NT & 2000
Gap handling : Appended to previous track

Used output format : User Defined Encoder
Selected bitrate : 1024 kBit/s
Quality : High
Add ID3 tag : No
Command line compressor : C:Program FilesExact Audio CopyFlacflac.exe
Additional command line options : -8 -V -T "ARTIST=%artist%" -T "TITLE=%title%" -T "ALBUM=%albumtitle%" -T "DATE=%year%" -T "TRACKNUMBER=%tracknr%" -T "GENRE=%genre%" -T "PERFORMER=%albuminterpret%" -T "COMPOSER=%composer%" %haslyrics%–tag-from-file=LYRICS="%lyricsfile%"%haslyrics% -T "ALBUMARTIST=%albumartist%" -T "DISCNUMBER=%cdnumber%" -T "TOTALDISCS=%totalcds%" -T "TOTALTRACKS=%numtracks%" -T "COMMENT=%comment%" %source% -o %dest%

TOC of the extracted CD

Track | Start | Length | Start sector | End sector
––––––––––––––––––––––––––––-
1 | 0:00.00 | 4:06.07 | 0 | 18456
2 | 4:06.07 | 2:31.35 | 18457 | 29816
3 | 6:37.42 | 3:13.60 | 29817 | 44351
4 | 9:51.27 | 2:33.68 | 44352 | 55894
5 | 12:25.20 | 2:13.70 | 55895 | 65939
6 | 14:39.15 | 2:26.00 | 65940 | 76889
7 | 17:05.15 | 2:44.37 | 76890 | 89226
8 | 19:49.52 | 2:56.73 | 89227 | 102499
9 | 22:46.50 | 1:47.62 | 102500 | 110586
10 | 24:34.37 | 2:50.05 | 110587 | 123341
11 | 27:24.42 | 2:37.63 | 123342 | 135179
12 | 30:02.30 | 2:42.50 | 135180 | 147379
13 | 32:45.05 | 2:28.25 | 147380 | 158504
14 | 35:13.30 | 2:23.30 | 158505 | 169259
15 | 37:36.60 | 2:21.60 | 169260 | 179894
16 | 39:58.45 | 2:34.30 | 179895 | 191474
17 | 42:33.00 | 2:44.00 | 191475 | 203774
18 | 45:17.00 | 2:19.52 | 203775 | 214251

Track 1

Filename C:FLAC1 Lollipops And Roses.wav

Pre-gap length 0:00:02.00

Peak level 99.0 %
Extraction speed 4.4 X
Track quality 100.0 %
Test CRC F930D164
Copy CRC F930D164
Cannot be verified as accurate (confidence 5) [81659607], AccurateRip returned [B4ECEDCC] (AR v2)
Copy OK

Track 2

Filename C:FLAC2 Wives And Lovers.wav

Pre-gap length 0:00:01.76

Peak level 95.9 %
Extraction speed 4.8 X
Track quality 100.0 %
Test CRC 27668911
Copy CRC 27668911
Cannot be verified as accurate (confidence 5) [EE010999], AccurateRip returned [BB228ABA] (AR v2)
Copy OK

Track 3

Filename C:FLAC3 Call Me Irresponsible.wav

Pre-gap length 0:00:01.73

Peak level 93.9 %
Extraction speed 4.9 X
Track quality 100.0 %
Test CRC D02C40CD
Copy CRC D02C40CD
Cannot be verified as accurate (confidence 5) [D8E84ADA], AccurateRip returned [221C714E] (AR v2)
Copy OK

Track 4

Filename C:FLAC4 A Lot Of Livin’ To Do.wav

Pre-gap length 0:00:01.86

Peak level 100.0 %
Extraction speed 5.2 X
Track quality 100.0 %
Test CRC DD1243D7
Copy CRC DD1243D7
Cannot be verified as accurate (confidence 5) [A77599FB], AccurateRip returned [486BE717] (AR v2)
Copy OK

Track 5

Filename C:FLAC5 Real Live Girl.wav

Pre-gap length 0:00:01.86

Peak level 100.0 %
Extraction speed 5.4 X
Track quality 100.0 %
Test CRC 1DFA970D
Copy CRC 1DFA970D
Cannot be verified as accurate (confidence 5) [A5237BF4], AccurateRip returned [82EA5DEA] (AR v2)
Copy OK

Track 6

Filename C:FLAC6 Love With The Proper Stranger.wav

Pre-gap length 0:00:01.80

Peak level 94.2 %
Extraction speed 5.7 X
Track quality 100.0 %
Test CRC 6339D915
Copy CRC 6339D915
Cannot be verified as accurate (confidence 5) [4D61EFAB], AccurateRip returned [A209AB63] (AR v2)
Copy OK

Track 7

Filename C:FLAC7 She Loves Me.wav

Pre-gap length 0:00:01.86

Peak level 95.2 %
Extraction speed 5.9 X
Track quality 100.0 %
Test CRC BC96951D
Copy CRC BC96951D
Cannot be verified as accurate (confidence 5) [26068A44], AccurateRip returned [21A9033C] (AR v2)
Copy OK

Track 8

Filename C:FLAC8 You’re My Girl.wav

Pre-gap length 0:00:01.80

Peak level 91.8 %
Extraction speed 6.1 X
Track quality 99.9 %
Test CRC 64F91039
Copy CRC 64F91039
Cannot be verified as accurate (confidence 5) [7E423CA8], AccurateRip returned [6F779386] (AR v2)
Copy OK

Track 9

Filename C:FLAC9 The Race Is On.wav

Pre-gap length 0:00:01.90

Peak level 89.4 %
Extraction speed 6.0 X
Track quality 100.0 %
Test CRC 37F240B5
Copy CRC 37F240B5
Cannot be verified as accurate (confidence 5) [B65B7811], AccurateRip returned [907805D9] (AR v2)
Copy OK

Track 10

Filename C:FLAC10 And I Love Her.wav

Pre-gap length 0:00:01.77

Peak level 92.6 %
Extraction speed 6.9 X
Track quality 100.0 %
Test CRC AB2ADC5A
Copy CRC AB2ADC5A
Cannot be verified as accurate (confidence 5) [01865B17], AccurateRip returned [0BF3957E] (AR v2)
Copy OK

Track 11

Filename C:FLAC11 Dear Heart.wav

Pre-gap length 0:00:01.76

Peak level 90.6 %
Extraction speed 7.1 X
Track quality 100.0 %
Test CRC 867DE38E
Copy CRC 867DE38E
Cannot be verified as accurate (confidence 5) [ECA7D030], AccurateRip returned [B14A5BDB] (AR v2)
Copy OK

Track 12

Filename C:FLAC12 I Can’t Believe I’m Losing You.wav

Pre-gap length 0:00:01.73

Peak level 78.7 %
Extraction speed 6.9 X
Track quality 99.9 %
Test CRC ECCB74D5
Copy CRC ECCB74D5
Cannot be verified as accurate (confidence 5) [8A148862], AccurateRip returned [D37C0FBD] (AR v2)
Copy OK

Track 13

Filename C:FLAC13 You’re Sensational.wav

Pre-gap length 0:00:01.80

Peak level 91.7 %
Extraction speed 7.1 X
Track quality 100.0 %
Test CRC 4986E48D
Copy CRC 4986E48D
Cannot be verified as accurate (confidence 5) [741CE752], AccurateRip returned [93DB6042] (AR v2)
Copy OK

Track 14

Filename C:FLAC14 My Best Girl.wav

Pre-gap length 0:00:01.84

Peak level 85.7 %
Extraction speed 7.2 X
Track quality 99.9 %
Test CRC 856F62DE
Copy CRC 856F62DE
Cannot be verified as accurate (confidence 5) [63D75987], AccurateRip returned [54E2954A] (AR v2)
Copy OK

Track 15

Filename C:FLAC15 A Day In The Life Of A Fool.wav

Pre-gap length 0:00:01.84

Peak level 99.3 %
Extraction speed 7.8 X
Track quality 100.0 %
Test CRC DA710F6B
Copy CRC DA710F6B
Cannot be verified as accurate (confidence 5) [34F2C8AE], AccurateRip returned [EA108270] (AR v2)
Copy OK

Track 16

Filename C:FLAC16 Alfie.wav

Pre-gap length 0:00:01.70

Peak level 94.2 %
Extraction speed 8.0 X
Track quality 100.0 %
Test CRC 9F6F0104
Copy CRC 9F6F0104
Cannot be verified as accurate (confidence 5) [7DF8DA66], AccurateRip returned [D8A53D91] (AR v2)
Copy OK

Track 17

Filename C:FLAC17 Lady.wav

Pre-gap length 0:00:01.80

Peak level 95.0 %
Extraction speed 7.8 X
Track quality 99.9 %
Test CRC 8BB22148
Copy CRC 8BB22148
Cannot be verified as accurate (confidence 5) [5841D071], AccurateRip returned [D26B7BD4] (AR v2)
Copy OK

Track 18

Filename C:FLAC18 The Impossible Dream.wav

Pre-gap length 0:00:01.70

Peak level 81.1 %
Extraction speed 8.0 X
Track quality 100.0 %
Test CRC 793B7C3E
Copy CRC 793B7C3E
Cannot be verified as accurate (confidence 5) [37270909], AccurateRip returned [EF9A2990] (AR v2)
Copy OK

No tracks could be verified as accurate
You may have a different pressing from the one(s) in the database

No errors occurred

End of status report

–– CUETools DB Plugin V2.1.3

[CTDB TOCID: qbUrACD57ux7.FYgA.8Rk31vo28-] found, Submit result: qbUrACD57ux7.FYgA.8Rk31vo28- has been confirmed
[4d5723e6] (4/4) Accurately ripped

==== Log checksum E98E29F2A4E36FAFDE67AE116380B13D43B353C4FBDA8DA5E0FE34F247ECA26F ====

––––––––––––––––––––––––––––––

Exact Audio Copy V1.0 beta 3 from 29. August 2011

EAC extraction logfile from 8. October 2014, 9:57

Jack Jones / Greatest Hits

Used drive : HL-DT-STDVDRAM GSA-T50L Adapter: 1 ID: 0

Read mode : Secure
Utilize accurate stream : Yes
Defeat audio cache : No
Make use of C2 pointers : No

Read offset correction : 667
Overread into Lead-In and Lead-Out : No
Fill up missing offset samples with silence : Yes
Delete leading and trailing silent blocks : No
Null samples used in CRC calculations : Yes
Used interface : Native Win32 interface for Win NT & 2000
Gap handling : Appended to previous track

Used output format : User Defined Encoder
Selected bitrate : 1024 kBit/s
Quality : High
Add ID3 tag : No
Command line compressor : C:Program FilesExact Audio CopyFlacflac.exe
Additional command line options : -8 -V -T "ARTIST=%artist%" -T "TITLE=%title%" -T "ALBUM=%albumtitle%" -T "DATE=%year%" -T "TRACKNUMBER=%tracknr%" -T "GENRE=%genre%" -T "PERFORMER=%albuminterpret%" -T "COMPOSER=%composer%" %haslyrics%–tag-from-file=LYRICS="%lyricsfile%"%haslyrics% -T "ALBUMARTIST=%albumartist%" -T "DISCNUMBER=%cdnumber%" -T "TOTALDISCS=%totalcds%" -T "TOTALTRACKS=%numtracks%" -T "COMMENT=%comment%" %source% -o %dest%

TOC of the extracted CD

Track | Start | Length | Start sector | End sector
––––––––––––––––––––––––––––-
1 | 0:00.00 | 4:06.07 | 0 | 18456
2 | 4:06.07 | 2:31.35 | 18457 | 29816
3 | 6:37.42 | 3:13.60 | 29817 | 44351
4 | 9:51.27 | 2:33.68 | 44352 | 55894
5 | 12:25.20 | 2:13.70 | 55895 | 65939
6 | 14:39.15 | 2:26.00 | 65940 | 76889
7 | 17:05.15 | 2:44.37 | 76890 | 89226
8 | 19:49.52 | 2:56.73 | 89227 | 102499
9 | 22:46.50 | 1:47.62 | 102500 | 110586
10 | 24:34.37 | 2:50.05 | 110587 | 123341
11 | 27:24.42 | 2:37.63 | 123342 | 135179
12 | 30:02.30 | 2:42.50 | 135180 | 147379
13 | 32:45.05 | 2:28.25 | 147380 | 158504
14 | 35:13.30 | 2:23.30 | 158505 | 169259
15 | 37:36.60 | 2:21.60 | 169260 | 179894
16 | 39:58.45 | 2:34.30 | 179895 | 191474
17 | 42:33.00 | 2:44.00 | 191475 | 203774
18 | 45:17.00 | 2:19.52 | 203775 | 214251

Track 1

Filename C:FLAC1 Lollipops And Roses.wav

Pre-gap length 0:00:02.00

Peak level 99.0 %
Extraction speed 4.4 X
Track quality 100.0 %
Test CRC F930D164
Copy CRC F930D164
Cannot be verified as accurate (confidence 5) [81659607], AccurateRip returned [B4ECEDCC] (AR v2)
Copy OK

Track 2

Filename C:FLAC2 Wives And Lovers.wav

Pre-gap length 0:00:01.76

Peak level 95.9 %
Extraction speed 4.8 X
Track quality 100.0 %
Test CRC 27668911
Copy CRC 27668911
Cannot be verified as accurate (confidence 5) [EE010999], AccurateRip returned [BB228ABA] (AR v2)
Copy OK

Track 3

Filename C:FLAC3 Call Me Irresponsible.wav

Pre-gap length 0:00:01.73

Peak level 93.9 %
Extraction speed 4.9 X
Track quality 100.0 %
Test CRC D02C40CD
Copy CRC D02C40CD
Cannot be verified as accurate (confidence 5) [D8E84ADA], AccurateRip returned [221C714E] (AR v2)
Copy OK

Track 4

Filename C:FLAC4 A Lot Of Livin’ To Do.wav

Pre-gap length 0:00:01.86

Peak level 100.0 %
Extraction speed 5.2 X
Track quality 100.0 %
Test CRC DD1243D7
Copy CRC DD1243D7
Cannot be verified as accurate (confidence 5) [A77599FB], AccurateRip returned [486BE717] (AR v2)
Copy OK

Track 5

Filename C:FLAC5 Real Live Girl.wav

Pre-gap length 0:00:01.86

Peak level 100.0 %
Extraction speed 5.4 X
Track quality 100.0 %
Test CRC 1DFA970D
Copy CRC 1DFA970D
Cannot be verified as accurate (confidence 5) [A5237BF4], AccurateRip returned [82EA5DEA] (AR v2)
Copy OK

Track 6

Filename C:FLAC6 Love With The Proper Stranger.wav

Pre-gap length 0:00:01.80

Peak level 94.2 %
Extraction speed 5.7 X
Track quality 100.0 %
Test CRC 6339D915
Copy CRC 6339D915
Cannot be verified as accurate (confidence 5) [4D61EFAB], AccurateRip returned [A209AB63] (AR v2)
Copy OK

Track 7

Filename C:FLAC7 She Loves Me.wav

Pre-gap length 0:00:01.86

Peak level 95.2 %
Extraction speed 5.9 X
Track quality 100.0 %
Test CRC BC96951D
Copy CRC BC96951D
Cannot be verified as accurate (confidence 5) [26068A44], AccurateRip returned [21A9033C] (AR v2)
Copy OK

Track 8

Filename C:FLAC8 You’re My Girl.wav

Pre-gap length 0:00:01.80

Peak level 91.8 %
Extraction speed 6.1 X
Track quality 99.9 %
Test CRC 64F91039
Copy CRC 64F91039
Cannot be verified as accurate (confidence 5) [7E423CA8], AccurateRip returned [6F779386] (AR v2)
Copy OK

Track 9

Filename C:FLAC9 The Race Is On.wav

Pre-gap length 0:00:01.90

Peak level 89.4 %
Extraction speed 6.0 X
Track quality 100.0 %
Test CRC 37F240B5
Copy CRC 37F240B5
Cannot be verified as accurate (confidence 5) [B65B7811], AccurateRip returned [907805D9] (AR v2)
Copy OK

Track 10

Filename C:FLAC10 And I Love Her.wav

Pre-gap length 0:00:01.77

Peak level 92.6 %
Extraction speed 6.9 X
Track quality 100.0 %
Test CRC AB2ADC5A
Copy CRC AB2ADC5A
Cannot be verified as accurate (confidence 5) [01865B17], AccurateRip returned [0BF3957E] (AR v2)
Copy OK

Track 11

Filename C:FLAC11 Dear Heart.wav

Pre-gap length 0:00:01.76

Peak level 90.6 %
Extraction speed 7.1 X
Track quality 100.0 %
Test CRC 867DE38E
Copy CRC 867DE38E
Cannot be verified as accurate (confidence 5) [ECA7D030], AccurateRip returned [B14A5BDB] (AR v2)
Copy OK

Track 12

Filename C:FLAC12 I Can’t Believe I’m Losing You.wav

Pre-gap length 0:00:01.73

Peak level 78.7 %
Extraction speed 6.9 X
Track quality 99.9 %
Test CRC ECCB74D5
Copy CRC ECCB74D5
Cannot be verified as accurate (confidence 5) [8A148862], AccurateRip returned [D37C0FBD] (AR v2)
Copy OK

Track 13

Filename C:FLAC13 You’re Sensational.wav

Pre-gap length 0:00:01.80

Peak level 91.7 %
Extraction speed 7.1 X
Track quality 100.0 %
Test CRC 4986E48D
Copy CRC 4986E48D
Cannot be verified as accurate (confidence 5) [741CE752], AccurateRip returned [93DB6042] (AR v2)
Copy OK

Track 14

Filename C:FLAC14 My Best Girl.wav

Pre-gap length 0:00:01.84

Peak level 85.7 %
Extraction speed 7.2 X
Track quality 99.9 %
Test CRC 856F62DE
Copy CRC 856F62DE
Cannot be verified as accurate (confidence 5) [63D75987], AccurateRip returned [54E2954A] (AR v2)
Copy OK

Track 15

Filename C:FLAC15 A Day In The Life Of A Fool.wav

Pre-gap length 0:00:01.84

Peak level 99.3 %
Extraction speed 7.8 X
Track quality 100.0 %
Test CRC DA710F6B
Copy CRC DA710F6B
Cannot be verified as accurate (confidence 5) [34F2C8AE], AccurateRip returned [EA108270] (AR v2)
Copy OK

Track 16

Filename C:FLAC16 Alfie.wav

Pre-gap length 0:00:01.70

Peak level 94.2 %
Extraction speed 8.0 X
Track quality 100.0 %
Test CRC 9F6F0104
Copy CRC 9F6F0104
Cannot be verified as accurate (confidence 5) [7DF8DA66], AccurateRip returned [D8A53D91] (AR v2)
Copy OK

Track 17

Filename C:FLAC17 Lady.wav

Pre-gap length 0:00:01.80

Peak level 95.0 %
Extraction speed 7.8 X
Track quality 99.9 %
Test CRC 8BB22148
Copy CRC 8BB22148
Cannot be verified as accurate (confidence 5) [5841D071], AccurateRip returned [D26B7BD4] (AR v2)
Copy OK

Track 18

Filename C:FLAC18 The Impossible Dream.wav

Pre-gap length 0:00:01.70

Peak level 81.1 %
Extraction speed 8.0 X
Track quality 100.0 %
Test CRC 793B7C3E
Copy CRC 793B7C3E
Cannot be verified as accurate (confidence 5) [37270909], AccurateRip returned [EF9A2990] (AR v2)
Copy OK

No tracks could be verified as accurate
You may have a different pressing from the one(s) in the database

No errors occurred

End of status report

–– CUETools DB Plugin V2.1.3

[CTDB TOCID: qbUrACD57ux7.FYgA.8Rk31vo28-] found, Submit result: qbUrACD57ux7.FYgA.8Rk31vo28- has been confirmed
[4d5723e6] (4/4) Accurately ripped

==== Log checksum E98E29F2A4E36FAFDE67AE116380B13D43B353C4FBDA8DA5E0FE34F247ECA26F ====

DR log
foobar2000 1.2 / Dynamic Range Meter 1.1.1
log date: 2014-10-18 02:41:35

––––––––––––––––––––––––––––––––––––––––
Analyzed: Jack Jones / Greatest Hits
––––––––––––––––––––––––––––––––––––––––

DR Peak RMS Duration Track
––––––––––––––––––––––––––––––––––––––––
DR12 -0.08 dB -15.98 dB 4:06 01-Lollipops And Roses
DR12 -0.36 dB -16.41 dB 2:31 02-Wives And Lovers
DR11 -0.54 dB -15.13 dB 3:14 03-Call Me Irresponsible
DR12 0.00 dB -15.62 dB 2:34 04-A Lot Of Livin’ To Do
DR12 0.00 dB -16.61 dB 2:14 05-Real Live Girl
DR10 -0.52 dB -15.29 dB 2:26 06-Love With The Proper Stranger
DR11 -0.42 dB -15.54 dB 2:44 07-She Loves Me
DR10 -0.74 dB -14.96 dB 2:57 08-You’re My Girl
DR9 -0.97 dB -11.62 dB 1:48 09-The Race Is On
DR10 -0.67 dB -14.25 dB 2:50 10-And I Love Her
DR10 -0.85 dB -14.07 dB 2:38 11-Dear Heart
DR8 -2.07 dB -13.14 dB 2:43 12-I Can’t Believe I’m Losing You
DR10 -0.75 dB -14.36 dB 2:28 13-You’re Sensational
DR9 -1.33 dB -13.84 dB 2:23 14-My Best Girl
DR10 -0.06 dB -13.75 dB 2:22 15-A Day In The Life Of A Fool
DR10 -0.51 dB -13.11 dB 2:34 16-Alfie
DR10 -0.44 dB -14.45 dB 2:44 17-Lady
DR10 -1.81 dB -14.92 dB 2:20 18-The Impossible Dream
––––––––––––––––––––––––––––––––––––––––

Number of tracks: 18
Official DR value: DR10

Samplerate: 44100 Hz
Channels: 2
Bits per sample: 16
Bitrate: 821 kbps
Codec: FLAC
================================================================================

Jack Jones - Greatest Hits (1995)

Jack Jones - Greatest Hits (1995)

All thanks to original releaser – only1joe

More interesting music in My Blog

Password: designol

Jack Jones – Greatest Hits (1995) Download, Warez, DDL, Free, Full Album, Torrent, Legal.

Download