J.J. Johnson – Quintergy: Live At The Village Vanguard (1988) {Antilles 422-848 214-2 rel 1991} | ViralVideoPk

Daily Dose of Free Downloads

J.J. Johnson – Quintergy: Live At The Village Vanguard (1988) {Antilles 422-848 214-2 rel 1991}

Download

J.J. Johnson - Quintergy: Live At The Village Vanguard (1988) {Antilles 422-848 214-2 rel 1991}

J.J. Johnson – Quintergy: Live At The Village Vanguard (1988) {Antilles 422-848 214-2 rel 1991}
EAC rip (secure mode) | FLAC (tracks)+CUE+LOG -> 357 Mb | MP3 @320 -> 159 Mb
Full Artwork @ 300 dpi (jpg) -> 16 Mb | 5% repair rar
© 1988, 1991 Antilles / Island Records | 422-848 214-2
Jazz / Post Bop / Trombone

Trombonist J.J. Johnson, 64 at the time of Quintergy, is heard in top form on this Live at the Village Vanguard set. His quintet, which includes Ralph Moore on tenor and soprano, pianist Stanley Cowell, bassist Rufus Reid and drummer Victor Lewis, is perfectly suited to interpret the spirited set of advanced bop. Highlights include Johnson’s feature on "You’ve Changed," "Coppin’ the Bop," "Lament" and his unaccompanied playing on "It’s All Right with Me." Excellent music. Another Antilles CD, Standards, comes from the same sessions.

Even nearing retirement age, Johnson sounds as full of controlled energy as ever on this fine pair of sets [this one and Standards] from a New York residency. The first record is perhaps the most grabbing, with a wonderful opening arrangement of "When The Saints Go Marching In" and a brief but beautiful unaccompanied version of "It’s All Right With Me." J.J.’s tone and phrasing are faultless on the faster numbers, Kenny Dorham’s "Blue Bossa," Wayne Shorter’s exacting "Nefertiti" and his own title-track.

Personnel:
J.J. Johnson – Trombone
Ralph Moore – Saxophones
Stanley Cowell – Piano
Rufus Reid – Bass
Victor Lewis – Drums

tracklist:
01 – When The Saints Go Marching In
02 – Blue Bossa
03 – Doc Was Here
04 – Bud’s Blues
05 – Quintergy
06 – Lament
07 – Why Indianapolis–Why Not Indianapolis?
08 – It’s All Right With Me
09 – Coppin’ The Bop
10 – Nefertiti
11 – You’ve Changed
12 – Commutation

EAC log
Exact Audio Copy V1.0 beta 1 from 15. November 2010

EAC extraction logfile from 6. October 2012, 20:11

JJ Johnson / Quintergy

Used drive : TSSTcorpCDDVDW SH-S203N Adapter: 0 ID: 2

Read mode : Secure
Utilize accurate stream : Yes
Defeat audio cache : Yes
Make use of C2 pointers : No

Read offset correction : 6
Overread into Lead-In and Lead-Out : No
Fill up missing offset samples with silence : Yes
Delete leading and trailing silent blocks : No
Null samples used in CRC calculations : Yes
Used interface : Installed external ASPI interface
Gap handling : Appended to previous track

Used output format : User Defined Encoder
Selected bitrate : 768 kBit/s
Quality : High
Add ID3 tag : No
Command line compressor : C:Program FilesExact Audio Copy-NEWFlacflac.exe
Additional command line options : -8 -V -T "ARTIST=%a" -T "TITLE=%t" -T "ALBUM=%g" -T "DATE=%y" -T "TRACKNUMBER=%n" -T "TOTALTRACKS=%x" -T "GENRE=%m" -T "ALBUMARTIST=%v" -T "ALBUM ARTIST=%v" -T "COMMENT=EAC V1.01b1, Secure Mode, Test & Copy, AccurateRip, FL

TOC of the extracted CD

Track | Start | Length | Start sector | End sector
––––––––––––––––––––––––––––-
1 | 0:00.32 | 4:57.28 | 32 | 22334
2 | 4:57.60 | 6:29.02 | 22335 | 51511
3 | 11:26.62 | 4:29.53 | 51512 | 71739
4 | 15:56.40 | 6:00.10 | 71740 | 98749
5 | 21:56.50 | 3:29.17 | 98750 | 114441
6 | 25:25.67 | 5:50.10 | 114442 | 140701
7 | 31:16.02 | 7:59.73 | 140702 | 176699
8 | 39:16.00 | 2:46.27 | 176700 | 189176
9 | 42:02.27 | 9:21.35 | 189177 | 231286
10 | 51:23.62 | 5:00.40 | 231287 | 253826
11 | 56:24.27 | 5:48.35 | 253827 | 279961
12 | 62:12.62 | 5:57.70 | 279962 | 306806

Track 1

Filename J:New RipsJJ Johnson – Quintergy (1991) [FLAC]1 – When The Saints Go Marching In.wav

Pre-gap length 0:00:02.32

Peak level 99.2 %
Extraction speed 5.2 X
Track quality 100.0 %
Test CRC C7443642
Copy CRC C7443642
Accurately ripped (confidence 9) [C42C6C3C]
Copy OK

Track 2

Filename J:New RipsJJ Johnson – Quintergy (1991) [FLAC]2 – Blue Bossa.wav

Peak level 99.2 %
Extraction speed 6.0 X
Track quality 100.0 %
Test CRC 995A7751
Copy CRC 995A7751
Accurately ripped (confidence 9) [C5EAE52D]
Copy OK

Track 3

Filename J:New RipsJJ Johnson – Quintergy (1991) [FLAC]3 – Doc Was Here.wav

Pre-gap length 0:00:00.01

Peak level 99.2 %
Extraction speed 6.3 X
Track quality 100.0 %
Test CRC 1C2D9668
Copy CRC 1C2D9668
Accurately ripped (confidence 9) [42B35B8A]
Copy OK

Track 4

Filename J:New RipsJJ Johnson – Quintergy (1991) [FLAC]4 – Bud’s Blues.wav

Peak level 99.2 %
Extraction speed 3.1 X
Track quality 99.9 %
Test CRC 60EDD1B5
Copy CRC 60EDD1B5
Accurately ripped (confidence 9) [90428634]
Copy OK

Track 5

Filename J:New RipsJJ Johnson – Quintergy (1991) [FLAC]5 – Quintergy.wav

Peak level 99.2 %
Extraction speed 3.2 X
Track quality 99.9 %
Test CRC 101A338A
Copy CRC 101A338A
Accurately ripped (confidence 9) [20F4334C]
Copy OK

Track 6

Filename J:New RipsJJ Johnson – Quintergy (1991) [FLAC]6 – Lament.wav

Peak level 80.3 %
Extraction speed 3.0 X
Track quality 99.9 %
Test CRC 0B4CFC31
Copy CRC 0B4CFC31
Accurately ripped (confidence 9) [7204BD4C]
Copy OK

Track 7

Filename J:New RipsJJ Johnson – Quintergy (1991) [FLAC]7 – Why Indianapolis–Why Not Indianapolis.wav

Peak level 99.2 %
Extraction speed 8.5 X
Track quality 100.0 %
Test CRC 19303F8B
Copy CRC 19303F8B
Accurately ripped (confidence 9) [022E3CE9]
Copy OK

Track 8

Filename J:New RipsJJ Johnson – Quintergy (1991) [FLAC]8 – It’s All Right With Me.wav

Peak level 94.2 %
Extraction speed 3.0 X
Track quality 99.9 %
Test CRC E3C09B99
Copy CRC E3C09B99
Accurately ripped (confidence 9) [B57FAF38]
Copy OK

Track 9

Filename J:New RipsJJ Johnson – Quintergy (1991) [FLAC]9 – Coppin’ The Bop.wav

Peak level 99.2 %
Extraction speed 3.9 X
Track quality 99.9 %
Test CRC DAFB485D
Copy CRC DAFB485D
Accurately ripped (confidence 8) [E629061D]
Copy OK

Track 10

Filename J:New RipsJJ Johnson – Quintergy (1991) [FLAC]10 – Nefertiti.wav

Peak level 99.2 %
Extraction speed 4.9 X
Track quality 99.9 %
Test CRC 830425B3
Copy CRC 830425B3
Accurately ripped (confidence 9) [DD332EA4]
Copy OK

Track 11

Filename J:New RipsJJ Johnson – Quintergy (1991) [FLAC]11 – You’ve Changed.wav

Peak level 56.4 %
Extraction speed 3.2 X
Track quality 99.9 %
Test CRC 4E00A274
Copy CRC 4E00A274
Accurately ripped (confidence 9) [C0B7E621]
Copy OK

Track 12

Filename J:New RipsJJ Johnson – Quintergy (1991) [FLAC]12 – Commutation.wav

Peak level 99.2 %
Extraction speed 9.7 X
Track quality 100.0 %
Test CRC F92B80FC
Copy CRC F92B80FC
Accurately ripped (confidence 9) [E70C5F1F]
Copy OK

All tracks accurately ripped

No errors occurred

End of status report

==== Log checksum E09742B2F9F50C8C23600C3959376891A72AB05C6D41A38D9AB9E1C7E8D2218E ====

J.J. Johnson - Quintergy: Live At The Village Vanguard (1988) {Antilles 422-848 214-2 rel 1991}

J.J. Johnson - Quintergy: Live At The Village Vanguard (1988) {Antilles 422-848 214-2 rel 1991}

All thanks goes to the original releaser!

J.J. Johnson – Quintergy: Live At The Village Vanguard (1988) {Antilles 422-848 214-2 rel 1991} Download, Warez, DDL, Free, Full Album, Torrent, Legal.

Download


  • Recent Posts

  • Recent Tags