Itzhak Perlman – Elgar: Violin Concerto, Chausson (1987)

Download
Itzhak Perlman - Elgar: Violin Concerto, Chausson (1987)

Itzhak Perlman – Elgar: Violin Concerto, Chausson (1987)
EAC | APE (image+.cue, log) | Covers Included | 63:59 | 286 MB
Genre: Classical | Label: Deutsche Grammophon | Catalog: 445 564-2

Perlman’s Elgar has always caused consternation among English critics, largely because it’s so much better played from a purely technical point of view than any performance by an English violinist. With its relatively swift tempos, the performance is sometimes judged to be lacking in repose and "inwardness," whatever that is. All of this is complete nonsense. Perlman’s playing of this extremely long and difficult concerto places it squarely in the grand Romantic tradition, which is precisely where it belongs. He plays the pants off the piece, and in Daniel Barenboim he has an excellent Elgar conductor leading an orchestra (the Chicago Symphony) of almost peerless quality. An essential Perlman disc. – David Hurwitz

discogs

Itzhak Perlman - Elgar: Violin Concerto, Chausson (1987)

Track List:

Elgar – Concerto for Violon & Orchestra in B minor
1. I. Allegro – 17:19
2. II. Andante – 11:46
3. III. Allegro molto – 18:09

4. Chausson – Poème, Op.25 – 16:35

Performers:
Itzhak Perlman – violin
Chicago Symphony Orchestra / Daniel Barenboim (1-3)
New York Philharmonic / Zubin Mehta (4)

Recorded: 1981 (1-3), 1986 (4)

EAC Log
Exact Audio Copy V0.99 prebeta 4 from 23. January 2008

EAC extraction logfile from 17. September 2009, 2:24

Itzhak Perlman, violon / Elgar-Concerto pour violon , Chausson-Poиme

Used drive : _NEC DVD_RW ND-2510A Adapter: 1 ID: 1

Read mode : Secure
Utilize accurate stream : Yes
Defeat audio cache : Yes
Make use of C2 pointers : No

Read offset correction : 48
Overread into Lead-In and Lead-Out : No
Fill up missing offset samples with silence : Yes
Delete leading and trailing silent blocks : No
Null samples used in CRC calculations : Yes
Used interface : Native Win32 interface for Win NT & 2000

Used output format : Internal WAV Routines
Sample format : 44.100 Hz; 16 Bit; Stereo

TOC of the extracted CD

Track | Start | Length | Start sector | End sector
––––––––––––––––––––––––––––-
1 | 0:00.32 | 17:19.00 | 32 | 77956
2 | 17:19.32 | 11:46.00 | 77957 | 130906
3 | 29:05.32 | 18:19.00 | 130907 | 213331
4 | 47:24.32 | 16:35.00 | 213332 | 287956

Range status and errors

Selected range

Filename C:Documents and SettingsIGORBureauItzhak Perlman, violon – Elgar-Concerto pour violon , Chausson-Poиme.wav

Peak level 99.9 %
Range quality 100.0 %
Copy CRC 513578F2
Copy OK

No errors occurred

AccurateRip summary

Track 1 not present in database
Track 2 cannot be verified as accurate (confidence 2) [2B08AD0C], AccurateRip returned [4615C1EC]
Track 3 cannot be verified as accurate (confidence 2) [18502FAC], AccurateRip returned [B9333943]
Track 4 cannot be verified as accurate (confidence 2) [1B69BA4D], AccurateRip returned [CAE0C18B]

3 track(s) could not be verified as accurate
1 track(s) not present in the AccurateRip database

No tracks could be verified as accurate
You may have a different pressing from the one(s) in the database

End of status report

CUETools Log
[CUETools log; Date: 28.07.2017 18:24:17; Version: 2.1.5]
Pregap length 00:00:32.
[CTDB TOCID: YmG9frP7MXMmnJg29m1r9g0jFYE-] found.
Track | CTDB Status
1 | (16/16) Accurately ripped
2 | (16/16) Accurately ripped
3 | (16/16) Accurately ripped
4 | (16/16) Accurately ripped
[AccurateRip ID: 000ad629-002b5cb4-2f0eff04] found.
Track [ CRC | V2 ] Status
01 [cb1c2bee|15e6b6c3] (06+10/22) Accurately ripped
02 [2b08ad0c|8431f310] (06+10/24) Accurately ripped
03 [18502fac|e0288909] (06+10/25) Accurately ripped
04 [1b69ba4d|c52eec26] (06+10/25) Accurately ripped
Offsetted by -482:
01 [ce882679] (00/22) No match (V2 was not tested)
02 [28b5dc29] (00/24) No match (V2 was not tested)
03 [41a17a5a] (00/25) No match (V2 was not tested)
04 [6f59d4bb] (00/25) No match (V2 was not tested)
Offsetted by 1902:
01 [44183749] (00/22) No match (V2 was not tested)
02 [4615c1ec] (02/24) Accurately ripped
03 [b9333943] (02/25) Accurately ripped
04 [cae0c18b] (02/25) Accurately ripped

Track Peak [ CRC32 ] [W/O NULL] [ LOG ]
– 99,9 [513578F2] [2A11D90F] CRC32
01 97,8 [596E1849] [E7E29F51]
02 94,9 [2D6893CD] [A705CC2C]
03 98,9 [5F109E32] [1F89288A]
04 99,9 [21366548] [BCDCD0A3]

Thanks to the Original ripper (unknown)!

Download:

Itzhak Perlman – Elgar: Violin Concerto, Chausson (1987) Download, Warez, DDL, Free, Full Album, Torrent, Legal.

Download