Italian Baroque: The Instrumental Edition: Fiorenza, Mele, Galuppi, Geminiani [2016]

Download
Italian Baroque: The Instrumental Edition: Fiorenza, Mele, Galuppi, Geminiani [2016]

Italian Baroque: The Instrumental Edition: Fiorenza, Mele, Galuppi, Geminiani [2016]
Classical | Brilliant Classics 95430 | TT: 57.14+60.24+54.32+53.35 | EAC (FLAC, cue, log) | Covers | 1.12 Gb

A celebration of instrumental Baroque splendour! This set present an anthology of Italian Baroque composers, featuring their instrumental output. Obviously the famous composers have their fair share: Vivaldi, Albinoni, Locatelli, Corelli, but also lesser known composers are featured: Barsanti, Bassani, Veracini, Nardini, Stradella, Vitali, Mancini, Platti, Legrenze and many more, over 30 composers! Performances by leading ensembles specialized in the Historically Informed Performance Practice: L’Arte dell’Arco/Federico Guglielmo, Ensemble Cordia/Stefano Veggetti, Violini Capricciosi/Igor Ruhadze, MusicaAmphion/Pieter Jan Belder and many more. A treasure trove of solo concertos, concerti grossi, sinfonias, overtures, trio sonatas and solo sonatas from the Golden Era of the Italian Baroque, era of joy, passion and brilliance!

CD12: Nicola Fiorenza & Giovanni Battista Mele: Recorder Concertos [57.14]
Track List & Cast:
Nicola Fiorenza (c.1700-1764)
01-04. Concerto in G minor for recorder, 3 violins and b.c.
05-08. Concerto in A minor for recorder, 2 violins and b.c.
09-12. Concerto in C minor for recorder, 3 violins, viola and b.c.
13-16. Concerto in F minor for recorder, 3 violins, viola and b.c.
Giovanni Battista Mele (c.1701-1752)
17-20. Concerto in F for recorder, 2 violins and b.c.

Collegium Pro Musica
Stefano Bagliano, recorder & director

EAC LOG
Exact Audio Copy V1.0 beta 3 from 29. August 2011

EAC extraction logfile from 15. July 2017, 19:49

Collegium Pro Musica, Stefano Bagliano / Fiorenza & Mele – Recorder Concertos

Used drive : PIONEER BD-RW BDR-207M Adapter: 0 ID: 0

Read mode : Secure
Utilize accurate stream : Yes
Defeat audio cache : Yes
Make use of C2 pointers : No

Read offset correction : 667
Overread into Lead-In and Lead-Out : No
Fill up missing offset samples with silence : Yes
Delete leading and trailing silent blocks : No
Null samples used in CRC calculations : Yes
Used interface : Native Win32 interface for Win NT & 2000

Used output format : User Defined Encoder
Selected bitrate : 128 kBit/s
Quality : High
Add ID3 tag : No
Command line compressor : C:Program FilesExact Audio CopyFlacflac.exe
Additional command line options : -V -8 -T "Date=%year%" -T "Genre=%genre%" %source%

TOC of the extracted CD

Track | Start | Length | Start sector | End sector
––––––––––––––––––––––––––––-
1 | 0:00.00 | 2:54.42 | 0 | 13091
2 | 2:54.42 | 3:58.24 | 13092 | 30965
3 | 6:52.66 | 2:22.01 | 30966 | 41616
4 | 9:14.67 | 2:50.41 | 41617 | 54407
5 | 12:05.33 | 2:51.61 | 54408 | 67293
6 | 14:57.19 | 2:07.52 | 67294 | 76870
7 | 17:04.71 | 2:43.52 | 76871 | 89147
8 | 19:48.48 | 1:15.16 | 89148 | 94788
9 | 21:03.64 | 3:02.46 | 94789 | 108484
10 | 24:06.35 | 4:45.08 | 108485 | 129867
11 | 28:51.43 | 2:08.05 | 129868 | 139472
12 | 30:59.48 | 3:42.33 | 139473 | 156155
13 | 34:42.06 | 2:09.09 | 156156 | 165839
14 | 36:51.15 | 4:50.54 | 165840 | 187643
15 | 41:41.69 | 3:38.73 | 187644 | 204066
16 | 45:20.67 | 2:21.29 | 204067 | 214670
17 | 47:42.21 | 1:26.24 | 214671 | 221144
18 | 49:08.45 | 2:05.45 | 221145 | 230564
19 | 51:14.15 | 1:48.42 | 230565 | 238706
20 | 53:02.57 | 4:09.74 | 238707 | 257455

Range status and errors

Selected range

Filename C:Fiorenza & Mele – Recorder Concertos.wav

Peak level 99.6 %
Extraction speed 7.1 X
Range quality 100.0 %
Test CRC FCC3B777
Copy CRC FCC3B777
Copy OK

No errors occurred

End of status report

==== Log checksum BB45A84277382FE66CFA8CF72F9C6200D37BB1CC4771484936A2C13A42BDAC9A ====

CD13: Baldassare Galuppi (1706-1785): Complete Concertos for strings [60.24]
Track List & Cast:
01-03. Concerto primo in G
04-06. Concerto quinto in B flat
07-09. Concerto che serve d’introdutione in G minor
10-12. Concerto secondo in D
13-15. Concerto sesto in A
16-18. Concerto terzo in C minor
19-21. Concerto quarto in E flat

Ensemble StilModerno

EAC LOG
Exact Audio Copy V1.0 beta 3 from 29. August 2011

EAC extraction logfile from 15. July 2017, 20:19

Ensemble StilModerno / Galuppi – Complete Concertos for strings

Used drive : PIONEER BD-RW BDR-207M Adapter: 0 ID: 0

Read mode : Secure
Utilize accurate stream : Yes
Defeat audio cache : Yes
Make use of C2 pointers : No

Read offset correction : 667
Overread into Lead-In and Lead-Out : No
Fill up missing offset samples with silence : Yes
Delete leading and trailing silent blocks : No
Null samples used in CRC calculations : Yes
Used interface : Native Win32 interface for Win NT & 2000

Used output format : User Defined Encoder
Selected bitrate : 128 kBit/s
Quality : High
Add ID3 tag : No
Command line compressor : C:Program FilesExact Audio CopyFlacflac.exe
Additional command line options : -V -8 -T "Date=%year%" -T "Genre=%genre%" %source%

TOC of the extracted CD

Track | Start | Length | Start sector | End sector
––––––––––––––––––––––––––––-
1 | 0:00.00 | 2:08.71 | 0 | 9670
2 | 2:08.71 | 2:10.12 | 9671 | 19432
3 | 4:19.08 | 1:11.49 | 19433 | 24806
4 | 5:30.57 | 5:33.33 | 24807 | 49814
5 | 11:04.15 | 2:52.21 | 49815 | 62735
6 | 13:56.36 | 2:16.43 | 62736 | 72978
7 | 16:13.04 | 2:59.66 | 72979 | 86469
8 | 19:12.70 | 3:05.23 | 86470 | 100367
9 | 22:18.18 | 3:08.06 | 100368 | 114473
10 | 25:26.24 | 3:04.03 | 114474 | 128276
11 | 28:30.27 | 2:12.55 | 128277 | 138231
12 | 30:43.07 | 1:36.12 | 138232 | 145443
13 | 32:19.19 | 4:35.36 | 145444 | 166104
14 | 36:54.55 | 3:12.68 | 166105 | 180572
15 | 40:07.48 | 2:09.38 | 180573 | 190285
16 | 42:17.11 | 3:42.31 | 190286 | 206966
17 | 45:59.42 | 4:00.23 | 206967 | 224989
18 | 49:59.65 | 2:32.06 | 224990 | 236395
19 | 52:31.71 | 3:14.02 | 236396 | 250947
20 | 55:45.73 | 2:06.00 | 250948 | 260397
21 | 57:51.73 | 2:32.13 | 260398 | 271810

Range status and errors

Selected range

Filename C:Galuppi – Complete Concertos for strings.wav

Peak level 98.3 %
Extraction speed 7.2 X
Range quality 99.9 %
Test CRC 7DB64C10
Copy CRC 7DB64C10
Copy OK

No errors occurred

End of status report

==== Log checksum AC4B5A38F54087751FF761C664EEE4A7368E8725F6CFB874647AF2C97F4C384E ====

CD14: Francesco Geminiani (1687-1762): 6 Sonatas Op.5 for cello and continuo [54.32]
Track List & Cast:
01-04. Sonata No.1 in A
05-08. Sonata No.2 in D minor
09-12. Sonata No.3 in C
13-16. Sonata No.4 in B flat
17-20. Sonata No.5 in F
21-23. Sonata No.6 in A minor

Jaap ter Linden, cello
Lars Ulrik Mortensen, harpsichord
Judith-Maria Becker, cello continuo

EAC LOG
Exact Audio Copy V1.0 beta 3 from 29. August 2011

EAC extraction logfile from 15. July 2017, 20:54

Jaap ter Linden, Lars Ulrik Mortensen, Judith-Maria Becker / Geminiani – 6 Sonatas Op.5

Used drive : PIONEER BD-RW BDR-207M Adapter: 0 ID: 0

Read mode : Secure
Utilize accurate stream : Yes
Defeat audio cache : Yes
Make use of C2 pointers : No

Read offset correction : 667
Overread into Lead-In and Lead-Out : No
Fill up missing offset samples with silence : Yes
Delete leading and trailing silent blocks : No
Null samples used in CRC calculations : Yes
Used interface : Native Win32 interface for Win NT & 2000

Used output format : User Defined Encoder
Selected bitrate : 128 kBit/s
Quality : High
Add ID3 tag : No
Command line compressor : C:Program FilesExact Audio CopyFlacflac.exe
Additional command line options : -V -8 -T "Date=%year%" -T "Genre=%genre%" %source%

TOC of the extracted CD

Track | Start | Length | Start sector | End sector
––––––––––––––––––––––––––––-
1 | 0:00.00 | 1:40.17 | 0 | 7516
2 | 1:40.17 | 3:35.52 | 7517 | 23693
3 | 5:15.69 | 0:45.10 | 23694 | 27078
4 | 6:01.04 | 3:54.03 | 27079 | 44631
5 | 9:55.07 | 2:27.68 | 44632 | 55724
6 | 12:23.00 | 2:27.69 | 55725 | 66818
7 | 14:50.69 | 0:41.73 | 66819 | 69966
8 | 15:32.67 | 4:32.58 | 69967 | 90424
9 | 20:05.50 | 1:47.36 | 90425 | 98485
10 | 21:53.11 | 4:27.10 | 98486 | 118520
11 | 26:20.21 | 3:07.53 | 118521 | 132598
12 | 29:27.74 | 2:45.55 | 132599 | 145028
13 | 32:13.54 | 0:28.32 | 145029 | 147160
14 | 32:42.11 | 3:13.38 | 147161 | 161673
15 | 35:55.49 | 0:48.49 | 161674 | 165322
16 | 36:44.23 | 0:51.44 | 165323 | 169191
17 | 37:35.67 | 0:37.28 | 169192 | 171994
18 | 38:13.20 | 1:26.19 | 171995 | 178463
19 | 39:39.39 | 2:43.57 | 178464 | 190745
20 | 42:23.21 | 3:04.69 | 190746 | 204614
21 | 45:28.15 | 0:41.61 | 204615 | 207750
22 | 46:10.01 | 3:39.52 | 207751 | 224227
23 | 49:49.53 | 4:40.63 | 224228 | 245290

Range status and errors

Selected range

Filename C:Geminiani – 6 Sonatas Op.5.wav

Peak level 100.0 %
Extraction speed 7.0 X
Range quality 99.9 %
Test CRC DFF05500
Copy CRC DFF05500
Copy OK

No errors occurred

End of status report

==== Log checksum 4E55D2AD16C297A55F700A0C552C34D7FE7B88365EA550BF8A18DF059147066D ====

CD15: Francesco Geminiani: Concerti Grossi after Opp.1, 3 & 5 by Arcangelo Corelli [53.35]
01-04. Concerto No.1 in F, Op.3
05-08. Concerto No.3 in B flat, Op.3
09-12. Concerto No.4 in B minor, Op.3
13-16. Concerto No.9 in F minor, Op.3
17-20. Concerto No.10 in A minor, Op.3
21-24. Concerto No.9 in G, Op.1
25-28. Concerto No.1 in D, Op.5
29-32. Concerto No.3 in C, Op.5

Ensemble Risonanze
Concertino
Concerto Grosso

EAC LOG
Exact Audio Copy V1.0 beta 3 from 29. August 2011

EAC extraction logfile from 15. July 2017, 21:27

Ensemble Risonanze / Germiniani – Concerti Grossi

Used drive : PIONEER BD-RW BDR-207M Adapter: 0 ID: 0

Read mode : Secure
Utilize accurate stream : Yes
Defeat audio cache : Yes
Make use of C2 pointers : No

Read offset correction : 667
Overread into Lead-In and Lead-Out : No
Fill up missing offset samples with silence : Yes
Delete leading and trailing silent blocks : No
Null samples used in CRC calculations : Yes
Used interface : Native Win32 interface for Win NT & 2000

Used output format : User Defined Encoder
Selected bitrate : 128 kBit/s
Quality : High
Add ID3 tag : No
Command line compressor : C:Program FilesExact Audio CopyFlacflac.exe
Additional command line options : -V -8 -T "Date=%year%" -T "Genre=%genre%" %source%

TOC of the extracted CD

Track | Start | Length | Start sector | End sector
––––––––––––––––––––––––––––-
1 | 0:00.00 | 1:42.09 | 0 | 7658
2 | 1:42.09 | 1:21.10 | 7659 | 13743
3 | 3:03.19 | 1:59.53 | 13744 | 22721
4 | 5:02.72 | 1:15.29 | 22722 | 28375
5 | 6:18.26 | 1:29.40 | 28376 | 35090
6 | 7:47.66 | 0:34.09 | 35091 | 37649
7 | 8:22.00 | 2:10.57 | 37650 | 47456
8 | 10:32.57 | 1:52.56 | 47457 | 55912
9 | 12:25.38 | 1:55.08 | 55913 | 64545
10 | 14:20.46 | 1:19.04 | 64546 | 70474
11 | 15:39.50 | 1:55.46 | 70475 | 79145
12 | 17:35.21 | 1:03.35 | 79146 | 83905
13 | 18:38.56 | 2:01.43 | 83906 | 93023
14 | 20:40.24 | 0:58.15 | 93024 | 97388
15 | 21:38.39 | 1:30.38 | 97389 | 104176
16 | 23:09.02 | 1:46.03 | 104177 | 112129
17 | 24:55.05 | 0:42.19 | 112130 | 115298
18 | 25:37.24 | 1:14.69 | 115299 | 120917
19 | 26:52.18 | 0:49.48 | 120918 | 124640
20 | 27:41.66 | 1:43.42 | 124641 | 132407
21 | 29:25.33 | 1:08.37 | 132408 | 137544
22 | 30:33.70 | 1:34.27 | 137545 | 144621
23 | 32:08.22 | 1:38.05 | 144622 | 151976
24 | 33:46.27 | 1:31.21 | 151977 | 158822
25 | 35:17.48 | 2:28.05 | 158823 | 169927
26 | 37:45.53 | 2:04.33 | 169928 | 179260
27 | 39:50.11 | 2:39.52 | 179261 | 191237
28 | 42:29.63 | 1:29.31 | 191238 | 197943
29 | 43:59.19 | 2:18.33 | 197944 | 208326
30 | 46:17.52 | 1:54.02 | 208327 | 216878
31 | 48:11.54 | 3:08.51 | 216879 | 231029
32 | 51:20.30 | 2:12.58 | 231030 | 240987

Range status and errors

Selected range

Filename C:Germiniani – Concerti Grossi.wav

Peak level 98.2 %
Extraction speed 7.0 X
Range quality 100.0 %
Test CRC DCEF8257
Copy CRC DCEF8257
Copy OK

No errors occurred

End of status report

==== Log checksum 29BF6968C2ECBAA0556C29922808F76E8A16B26DADA539198D2AEE56129ADD19 ====

Italian Baroque: The Instrumental Edition: Fiorenza, Mele, Galuppi, Geminiani [2016] Download, Warez, DDL, Free, Full Album, Torrent, Legal.

Download