Irma Thomas – True Believer (1992)

Download
Irma Thomas - True Believer (1992)

Irma Thomas – True Believer (1992)
EAC | FLAC | Image (Cue&Log) ~ 255 Mb | Mp3 (CBR320) ~ 110 Mb | Scans included
Soul, New Orleans Rhythm & Blues | Label: Rounder | # RCD 2117 | Time: 00:42:48

Like her first two efforts for Rounder, True Believer is a stellar collection of contemporary soul performed in the classic ’50s New Orleans tradition. The difference is in conception. True Believer focuses on heartbreak songs, and there is genuine anguish in Irma Thomas’ voice, making new songs by the likes of Dan Penn, Dr. John, Tony Joe White, Allen Toussaint, and Doc Pomus sound like instant classics. Another excellent effort from a woman who has plenty to her credit.

Review by Thom Owens, Allmusic.com

Irma Thomas at Allmusic
Irma Thomas Website
Irma Thomas at Wiki

Tracklist:

01. Trying to Catch a Cab in the Rain (04:41)
02. Can’t You Hear It in My Tears (05:04)
03. I Never Fool Nobody But Me (04:12)
04. Smoke Filled Room (04:23)
05. Big Talk (03:04)
06. Chains of Love (04:41)
07. Heart Full of Rain (05:01)
08. Sweet Touch of Love (03:39)
09. I’ll Be Satisfied (03:00)
10. True Believer (04:59)

EAC log
Exact Audio Copy V1.0 beta 3 from 29. August 2011

Отчёт EAC об извлечении, выполненном 10. ноября 2011, 21:54

Irma Thomas / True Believer

Дисковод: Optiarc DVD RW AD-7263S Adapter: 1 ID: 0

Режим чтения : Достоверность
Использование точного потока : Да
Отключение кэша аудио : Да
Использование указателей C2 : Нет

Коррекция смещения при чтении : 48
Способность читать области Lead-in и Lead-out : Нет
Заполнение пропущенных сэмплов тишиной : Да
Удаление блоков с тишиной в начале и конце : Нет
При вычислениях CRC использовались нулевые сэмплы : Да
Интерфейс : Встроенный Win32-интерфейс для Win NT/2000

Выходной формат : Пользовательский кодировщик
Выбранный битрейт : 128 kBit/s
Качество : Высокий
Добавление ID3-тега : Нет
Утилита сжатия : C:Program FilesExact Audio CopyFLACFLAC.EXE
Дополнительные параметры : -V -8 -T "Date=%year%" -T "Genre=%genre%" %source%

TOC извлечённого CD

Трек | Старт | Длительность | Начальный сектор | Конечный сектор
––––––––––––––––––––––––––––––––––-
1 | 0:00.52 | 4:41.00 | 52 | 21126
2 | 4:41.52 | 5:04.30 | 21127 | 43956
3 | 9:46.07 | 4:12.63 | 43957 | 62919
4 | 13:58.70 | 4:23.20 | 62920 | 82664
5 | 18:22.15 | 3:04.10 | 82665 | 96474
6 | 21:26.25 | 4:41.70 | 96475 | 117619
7 | 26:08.20 | 5:01.25 | 117620 | 140219
8 | 31:09.45 | 3:39.12 | 140220 | 156656
9 | 34:48.57 | 3:00.43 | 156657 | 170199
10 | 37:49.25 | 4:59.70 | 170200 | 192694

Характеристики диапазона извлечения и сообщения об ошибках

Выбранный диапазон

Имя файла C:Irma Thomas – True Believer.wav

Пиковый уровень 99.9 %
Скорость извлечения 3.6 X
Качество диапазона 100.0 %
CRC теста 9070FBC2
CRC копии 9070FBC2
Копирование… OK

Ошибок не произошло

AccurateRip: сводка

Трек 1 : извлечено точно (доверие 4) [AF57E739] (AR v1)
Трек 2 : извлечено точно (доверие 4) [F31FF249] (AR v1)
Трек 3 : извлечено точно (доверие 4) [A169C42B] (AR v1)
Трек 4 : извлечено точно (доверие 4) [8646E33C] (AR v1)
Трек 5 : извлечено точно (доверие 4) [07163EA4] (AR v1)
Трек 6 : извлечено точно (доверие 4) [1F0FC226] (AR v1)
Трек 7 : извлечено точно (доверие 4) [80FB4FF7] (AR v1)
Трек 8 : извлечено точно (доверие 4) [8DE0B4DB] (AR v1)
Трек 9 : извлечено точно (доверие 4) [1D55354F] (AR v1)
Трек 10 : извлечено точно (доверие 4) [767FD40A] (AR v1)

Все треки извлечены точно

Конец отчёта

–– CUETools DB Plugin V2.1.3

[CTDB TOCID: .MtwmQO79yuRZ46TFBa4yOA64k4-] disk not present in database, Submit result: .MtwmQO79yuRZ46TFBa4yOA64k4- has been uploaded

==== Контрольная сумма отчёта 90A874E175C6DD1543BBFAA4C8865AF66B6EB8B9148E3726D7F5BD3C6DB82D43 ====

DR log
foobar2000 1.2.1 / Dynamic Range Meter 1.1.1
log date: 2013-02-21 23:25:50

––––––––––––––––––––––––––––––––––––––––
Analyzed: Irma Thomas / True Believer
––––––––––––––––––––––––––––––––––––––––

DR Peak RMS Duration Track
––––––––––––––––––––––––––––––––––––––––
DR15 -0.42 dB -18.14 dB 4:41 01-Trying to Catch a Cab in the Rain
DR13 -0.86 dB -19.27 dB 5:04 02-Can’t You Hear It in My Tears
DR15 -0.23 dB -17.93 dB 4:13 03-I Never Fool Nobody But Me
DR13 -1.37 dB -18.32 dB 4:23 04-Smoke Filled Room
DR14 0.00 dB -17.11 dB 3:04 05-Big Talk
DR13 -0.21 dB -16.23 dB 4:42 06-Chains of Love
DR14 -0.62 dB -18.93 dB 5:01 07-Heart Full of Rain
DR14 -0.13 dB -17.26 dB 3:39 08-Sweet Touch of Love
DR15 -0.47 dB -18.30 dB 3:01 09-I’ll Be Satisfied
DR13 -2.42 dB -20.04 dB 5:00 10-True Believer
––––––––––––––––––––––––––––––––––––––––

Number of tracks: 10
Official DR value: DR14

Samplerate: 44100 Hz
Channels: 2
Bits per sample: 16
Bitrate: 795 kbps
Codec: FLAC
================================================================================

Irma Thomas - True Believer (1992)

Irma Thomas - True Believer (1992)

All thanks to original releaser – arveranda

More interesting music in My Blog

Irma Thomas – True Believer (1992) Download, Warez, DDL, Free, Full Album, Torrent, Legal.

Download