IQ – Scrape Across The Sky (2016)

Download
IQ - Scrape Across The Sky (2016)

IQ – Scrape Across The Sky (2016)
Blu-ray: MPEG-4 AVC 7142 kbps, 1080i, 25 fps, 16:9, High Profile 4.1
LPCM 2.0, 48 kHz, 1536 kbps, 16-bit / Dolby Digital 5.1, 48 kHz, 448 kbps
Progressive Rock | GEPBD9006 | Scans Included | ~ 22.88 Gb

IQ has offered us many high-quality studio albums and many live releases over their career, "Road To The Bones" is no exception. This is their first Blu-Ray shot in a small club in Holland. They played all of the first cd of their last album, one from the second cd, plus classics from various albums. How can we say something wrong about this professionalism band in terms of playing display, the songs being performed faithfully to the studio versions. However, it is a little bit frustrating for me to hear many drops in the surround sound through the show, unlike the stereo sound that you can listen also in the extras with all the projections. The song "Until The End" was also shown in the extras at the Lorelei Festival. I would have preferred to see this complete show instead of the one they choose because it looks better on a bigger stage. In the extras, there’s an interview between Peter Nicholls and the artist designer that will appeal to a few people. They should have done interviews with the band’s members instead. So, thumbs up for the performance, the set list and thumbs down for some technical issue with the surround sound, that is still good for the spatialization. IQ score of 4.

by rdtprog, progarchives

IQ – Scrape Across The Sky (2016):

IQ - Scrape Across The Sky (2016)

Tracklist:

Intro
Awake And Nervous
The Darkest Hour
From The Outside In
The Road Of Bones
Frequency
Without Walls
Ocean
Leap of Faith
Until The End
Outer Limits
The Seventh House

Extras:
Ten Million Demons
Widow’s Peak

Musicians:

Paul Cook – drums
Neil Durant – keyboards
Tim Esau – bass guitar, bass pedal, backing vocals
Michael Holmes – guitars, backing vocals
Peter Nicholls – lead vocal

BDInfo
Disc Title: IQ GEPBD9006
Disc Size: 23 093 871 208 bytes
Protection: AACS
BD-Java: No
Extras: 50Hz Content
BDInfo: 0.5.8

Notes:

BDINFO HOME:
Cinema Squid
http://www.cinemasquid.com/blu-ray/tools/bdinfo

INCLUDES FORUMS REPORT FOR:
AVS Forum Blu-ray Audio and Video Specifications Thread
http://www.avsforum.com/avs-vb/showthread.php?t=1155731

WARNING: Report is incomplete because: Scan has not been run.

********************
PLAYLIST: 00000.MPLS
********************

<–- BEGIN FORUMS PASTE –->

                                                                                                                  Total   Video                                               Title                                                           Codec   Length  Movie Size      Disc Size       Bitrate Bitrate Main Audio Track                          Secondary Audio Track  -----                                                           ------  ------- --------------  --------------  ------- ------- ------------------                        ---------------------  00000.MPLS                                                      AVC     2:12:44 0               23 093 871 208  0,00    0,00    LPCM 2.0 1536Kbps (48kHz/16-bit)            

    DISC INFO:    Disc Title:     IQ GEPBD9006  Disc Size:      23 093 871 208 bytes  Protection:     AACS  BD-Java:        No  Extras:         50Hz Content  BDInfo:         0.5.8    PLAYLIST REPORT:    Name:                   00000.MPLS  Length:                 2:12:44.680 (h:m:s.ms)  Size:                   0 bytes  Total Bitrate:          0,00 Mbps    VIDEO:    Codec                   Bitrate             Description       -----                   -------             -----------       MPEG-4 AVC Video        0 kbps              1080i / 25 fps / 16:9 / High Profile 4.1    AUDIO:    Codec                           Language        Bitrate         Description       -----                           --------        -------         -----------       LPCM Audio                      English         1536 kbps       2.0 / 48 kHz / 1536 kbps / 16-bit    FILES:    Name            Time In         Length          Size            Total Bitrate     ----            -------         ------          ----            -------------     00000.M2TS      0:00:00.000     2:12:44.680     0               0                   CHAPTERS:    Number          Time In         Length          Avg Video Rate  Max 1-Sec Rate  Max 1-Sec Time  Max 5-Sec Rate  Max 5-Sec Time  Max 10Sec Rate  Max 10Sec Time  Avg Frame Size  Max Frame Size  Max Frame Time    ------          -------         ------          --------------  --------------  --------------  --------------  --------------  --------------  --------------  --------------  --------------  --------------    1               0:00:00.000     0:02:18.960     0 kbps          0 kbps          00:00:00.000    0 kbps          00:00:00.000    0 kbps          00:00:00.000    0 bytes         0 bytes         00:00:00.000      2               0:02:18.960     0:08:05.480     0 kbps          0 kbps          00:00:00.000    0 kbps          00:00:00.000    0 kbps          00:00:00.000    0 bytes         0 bytes         00:00:00.000      3               0:10:24.440     0:10:03.960     0 kbps          0 kbps          00:00:00.000    0 kbps          00:00:00.000    0 kbps          00:00:00.000    0 bytes         0 bytes         00:00:00.000      4               0:20:28.400     0:07:47.639     0 kbps          0 kbps          00:00:00.000    0 kbps          00:00:00.000    0 kbps          00:00:00.000    0 bytes         0 bytes         00:00:00.000      5               0:28:16.040     0:08:14.559     0 kbps          0 kbps          00:00:00.000    0 kbps          00:00:00.000    0 kbps          00:00:00.000    0 bytes         0 bytes         00:00:00.000      6               0:36:30.600     0:08:14.840     0 kbps          0 kbps          00:00:00.000    0 kbps          00:00:00.000    0 kbps          00:00:00.000    0 bytes         0 bytes         00:00:00.000      7               0:44:45.440     0:20:03.280     0 kbps          0 kbps          00:00:00.000    0 kbps          00:00:00.000    0 kbps          00:00:00.000    0 bytes         0 bytes         00:00:00.000      8               1:04:48.720     0:06:18.319     0 kbps          0 kbps          00:00:00.000    0 kbps          00:00:00.000    0 kbps          00:00:00.000    0 bytes         0 bytes         00:00:00.000      9               1:11:07.040     0:07:35.079     0 kbps          0 kbps          00:00:00.000    0 kbps          00:00:00.000    0 kbps          00:00:00.000    0 bytes         0 bytes         00:00:00.000      10              1:18:42.120     0:11:38.199     0 kbps          0 kbps          00:00:00.000    0 kbps          00:00:00.000    0 kbps          00:00:00.000    0 bytes         0 bytes         00:00:00.000      11              1:30:20.320     0:06:49.920     0 kbps          0 kbps          00:00:00.000    0 kbps          00:00:00.000    0 kbps          00:00:00.000    0 bytes         0 bytes         00:00:00.000      12              1:37:10.240     0:17:25.119     0 kbps          0 kbps          00:00:00.000    0 kbps          00:00:00.000    0 kbps          00:00:00.000    0 bytes         0 bytes         00:00:00.000      13              1:54:35.360     0:08:09.160     0 kbps          0 kbps          00:00:00.000    0 kbps          00:00:00.000    0 kbps          00:00:00.000    0 bytes         0 bytes         00:00:00.000      14              2:02:44.520     0:10:00.159     0 kbps          0 kbps          00:00:00.000    0 kbps          00:00:00.000    0 kbps          00:00:00.000    0 bytes         0 bytes         00:00:00.000        STREAM DIAGNOSTICS:    File            PID             Type            Codec           Language                Seconds                 Bitrate                 Bytes           Packets           ----            ---             ----            -----           --------                --------------          --------------          -------------   -----             00000.M2TS      4113 (0x1011)   0x1B            AVC                                     0                       0                       0               0                 00000.M2TS      4352 (0x1100)   0x80            LPCM            eng (English)           0                       0                       0               0                   

<–– END FORUMS PASTE ––>

QUICK SUMMARY:

Disc Title: IQ GEPBD9006
Disc Size: 23 093 871 208 bytes
Protection: AACS
BD-Java: No
Playlist: 00000.MPLS
Size: 0 bytes
Length: 2:12:44.680
Total Bitrate: 0,00 Mbps
Video: MPEG-4 AVC Video / 0 kbps / 1080i / 25 fps / 16:9 / High Profile 4.1
Audio: English / LPCM Audio / 2.0 / 48 kHz / 1536 kbps / 16-bit

********************
PLAYLIST: 00007.MPLS
********************

<–- BEGIN FORUMS PASTE –->

                                                                                                                  Total   Video                                               Title                                                           Codec   Length  Movie Size      Disc Size       Bitrate Bitrate Main Audio Track                          Secondary Audio Track  -----                                                           ------  ------- --------------  --------------  ------- ------- ------------------                        ---------------------  00007.MPLS                                                      AVC     1:53:34 0               23 093 871 208  0,00    0,00    LPCM 2.0 2304Kbps (48kHz/24-bit)          DD AC3 5.1 448Kbps  

    DISC INFO:    Disc Title:     IQ GEPBD9006  Disc Size:      23 093 871 208 bytes  Protection:     AACS  BD-Java:        No  Extras:         50Hz Content  BDInfo:         0.5.8    PLAYLIST REPORT:    Name:                   00007.MPLS  Length:                 1:53:34.520 (h:m:s.ms)  Size:                   0 bytes  Total Bitrate:          0,00 Mbps    VIDEO:    Codec                   Bitrate             Description       -----                   -------             -----------       MPEG-4 AVC Video        0 kbps              1080i / 25 fps / 16:9 / High Profile 4.1    AUDIO:    Codec                           Language        Bitrate         Description       -----                           --------        -------         -----------       LPCM Audio                      English         2304 kbps       2.0 / 48 kHz / 2304 kbps / 24-bit  Dolby Digital Audio             English         448 kbps        5.1 / 48 kHz / 448 kbps    FILES:    Name            Time In         Length          Size            Total Bitrate     ----            -------         ------          ----            -------------     00014.M2TS      0:00:00.000     1:53:34.520     0               0                   CHAPTERS:    Number          Time In         Length          Avg Video Rate  Max 1-Sec Rate  Max 1-Sec Time  Max 5-Sec Rate  Max 5-Sec Time  Max 10Sec Rate  Max 10Sec Time  Avg Frame Size  Max Frame Size  Max Frame Time    ------          -------         ------          --------------  --------------  --------------  --------------  --------------  --------------  --------------  --------------  --------------  --------------    1               0:00:00.000     0:02:18.760     0 kbps          0 kbps          00:00:00.000    0 kbps          00:00:00.000    0 kbps          00:00:00.000    0 bytes         0 bytes         00:00:00.000      2               0:02:18.760     0:08:05.200     0 kbps          0 kbps          00:00:00.000    0 kbps          00:00:00.000    0 kbps          00:00:00.000    0 bytes         0 bytes         00:00:00.000      3               0:10:23.960     0:10:04.079     0 kbps          0 kbps          00:00:00.000    0 kbps          00:00:00.000    0 kbps          00:00:00.000    0 bytes         0 bytes         00:00:00.000      4               0:20:28.040     0:07:47.760     0 kbps          0 kbps          00:00:00.000    0 kbps          00:00:00.000    0 kbps          00:00:00.000    0 bytes         0 bytes         00:00:00.000      5               0:28:15.800     0:08:14.199     0 kbps          0 kbps          00:00:00.000    0 kbps          00:00:00.000    0 kbps          00:00:00.000    0 bytes         0 bytes         00:00:00.000      6               0:36:30.000     0:08:14.840     0 kbps          0 kbps          00:00:00.000    0 kbps          00:00:00.000    0 kbps          00:00:00.000    0 bytes         0 bytes         00:00:00.000      7               0:44:44.840     0:20:03.519     0 kbps          0 kbps          00:00:00.000    0 kbps          00:00:00.000    0 kbps          00:00:00.000    0 bytes         0 bytes         00:00:00.000      8               1:04:48.360     0:06:18.400     0 kbps          0 kbps          00:00:00.000    0 kbps          00:00:00.000    0 kbps          00:00:00.000    0 bytes         0 bytes         00:00:00.000      9               1:11:06.760     0:07:34.960     0 kbps          0 kbps          00:00:00.000    0 kbps          00:00:00.000    0 kbps          00:00:00.000    0 bytes         0 bytes         00:00:00.000      10              1:18:41.720     0:11:40.199     0 kbps          0 kbps          00:00:00.000    0 kbps          00:00:00.000    0 kbps          00:00:00.000    0 bytes         0 bytes         00:00:00.000      11              1:30:21.920     0:06:48.319     0 kbps          0 kbps          00:00:00.000    0 kbps          00:00:00.000    0 kbps          00:00:00.000    0 bytes         0 bytes         00:00:00.000      12              1:37:10.240     0:16:24.280     0 kbps          0 kbps          00:00:00.000    0 kbps          00:00:00.000    0 kbps          00:00:00.000    0 bytes         0 bytes         00:00:00.000        STREAM DIAGNOSTICS:    File            PID             Type            Codec           Language                Seconds                 Bitrate                 Bytes           Packets           ----            ---             ----            -----           --------                --------------          --------------          -------------   -----             00014.M2TS      4113 (0x1011)   0x1B            AVC                                     0                       0                       0               0                 00014.M2TS      4352 (0x1100)   0x80            LPCM            eng (English)           0                       0                       0               0                 00014.M2TS      4353 (0x1101)   0x81            AC3             eng (English)           0                       0                       0               0                   

<–– END FORUMS PASTE ––>

QUICK SUMMARY:

Disc Title: IQ GEPBD9006
Disc Size: 23 093 871 208 bytes
Protection: AACS
BD-Java: No
Playlist: 00007.MPLS
Size: 0 bytes
Length: 1:53:34.520
Total Bitrate: 0,00 Mbps
Video: MPEG-4 AVC Video / 0 kbps / 1080i / 25 fps / 16:9 / High Profile 4.1
Audio: English / LPCM Audio / 2.0 / 48 kHz / 2304 kbps / 24-bit
Audio: English / Dolby Digital Audio / 5.1 / 48 kHz / 448 kbps

********************
PLAYLIST: 00002.MPLS
********************

<–- BEGIN FORUMS PASTE –->

                                                                                                                  Total   Video                                               Title                                                           Codec   Length  Movie Size      Disc Size       Bitrate Bitrate Main Audio Track                          Secondary Audio Track  -----                                                           ------  ------- --------------  --------------  ------- ------- ------------------                        ---------------------  00002.MPLS                                                      AVC     0:19:10 0               23 093 871 208  0,00    0,00    LPCM 2.0 2304Kbps (48kHz/24-bit)          DD AC3 5.1 448Kbps  

    DISC INFO:    Disc Title:     IQ GEPBD9006  Disc Size:      23 093 871 208 bytes  Protection:     AACS  BD-Java:        No  Extras:         50Hz Content  BDInfo:         0.5.8    PLAYLIST REPORT:    Name:                   00002.MPLS  Length:                 0:19:10.119 (h:m:s.ms)  Size:                   0 bytes  Total Bitrate:          0,00 Mbps    VIDEO:    Codec                   Bitrate             Description       -----                   -------             -----------       MPEG-4 AVC Video        0 kbps              1080i / 25 fps / 16:9 / High Profile 4.1    AUDIO:    Codec                           Language        Bitrate         Description       -----                           --------        -------         -----------       LPCM Audio                      English         2304 kbps       2.0 / 48 kHz / 2304 kbps / 24-bit  Dolby Digital Audio             English         448 kbps        5.1 / 48 kHz / 448 kbps    FILES:    Name            Time In         Length          Size            Total Bitrate     ----            -------         ------          ----            -------------     00004.M2TS      0:00:00.000     0:19:10.119     0               0                   CHAPTERS:    Number          Time In         Length          Avg Video Rate  Max 1-Sec Rate  Max 1-Sec Time  Max 5-Sec Rate  Max 5-Sec Time  Max 10Sec Rate  Max 10Sec Time  Avg Frame Size  Max Frame Size  Max Frame Time    ------          -------         ------          --------------  --------------  --------------  --------------  --------------  --------------  --------------  --------------  --------------  --------------    1               0:00:00.000     0:01:00.919     0 kbps          0 kbps          00:00:00.000    0 kbps          00:00:00.000    0 kbps          00:00:00.000    0 bytes         0 bytes         00:00:00.000      2               0:01:00.919     0:08:09.240     0 kbps          0 kbps          00:00:00.000    0 kbps          00:00:00.000    0 kbps          00:00:00.000    0 bytes         0 bytes         00:00:00.000      3               0:09:10.160     0:09:59.959     0 kbps          0 kbps          00:00:00.000    0 kbps          00:00:00.000    0 kbps          00:00:00.000    0 bytes         0 bytes         00:00:00.000        STREAM DIAGNOSTICS:    File            PID             Type            Codec           Language                Seconds                 Bitrate                 Bytes           Packets           ----            ---             ----            -----           --------                --------------          --------------          -------------   -----             00004.M2TS      4113 (0x1011)   0x1B            AVC                                     0                       0                       0               0                 00004.M2TS      4352 (0x1100)   0x80            LPCM            eng (English)           0                       0                       0               0                 00004.M2TS      4353 (0x1101)   0x81            AC3             eng (English)           0                       0                       0               0                   

<–– END FORUMS PASTE ––>

QUICK SUMMARY:

Disc Title: IQ GEPBD9006
Disc Size: 23 093 871 208 bytes
Protection: AACS
BD-Java: No
Playlist: 00002.MPLS
Size: 0 bytes
Length: 0:19:10.119
Total Bitrate: 0,00 Mbps
Video: MPEG-4 AVC Video / 0 kbps / 1080i / 25 fps / 16:9 / High Profile 4.1
Audio: English / LPCM Audio / 2.0 / 48 kHz / 2304 kbps / 24-bit
Audio: English / Dolby Digital Audio / 5.1 / 48 kHz / 448 kbps

********************
PLAYLIST: 00005.MPLS
********************

<–- BEGIN FORUMS PASTE –->

                                                                                                                  Total   Video                                               Title                                                           Codec   Length  Movie Size      Disc Size       Bitrate Bitrate Main Audio Track                          Secondary Audio Track  -----                                                           ------  ------- --------------  --------------  ------- ------- ------------------                        ---------------------  00005.MPLS                                                      AVC     0:14:00 0               23 093 871 208  0,00    0,00    LPCM 2.0 1536Kbps (48kHz/16-bit)            

    DISC INFO:    Disc Title:     IQ GEPBD9006  Disc Size:      23 093 871 208 bytes  Protection:     AACS  BD-Java:        No  Extras:         50Hz Content  BDInfo:         0.5.8    PLAYLIST REPORT:    Name:                   00005.MPLS  Length:                 0:14:00.040 (h:m:s.ms)  Size:                   0 bytes  Total Bitrate:          0,00 Mbps    VIDEO:    Codec                   Bitrate             Description       -----                   -------             -----------       MPEG-4 AVC Video        0 kbps              1080i / 25 fps / 16:9 / High Profile 4.1    AUDIO:    Codec                           Language        Bitrate         Description       -----                           --------        -------         -----------       LPCM Audio                      English         1536 kbps       2.0 / 48 kHz / 1536 kbps / 16-bit    FILES:    Name            Time In         Length          Size            Total Bitrate     ----            -------         ------          ----            -------------     00010.M2TS      0:00:00.000     0:14:00.040     0               0                   CHAPTERS:    Number          Time In         Length          Avg Video Rate  Max 1-Sec Rate  Max 1-Sec Time  Max 5-Sec Rate  Max 5-Sec Time  Max 10Sec Rate  Max 10Sec Time  Avg Frame Size  Max Frame Size  Max Frame Time    ------          -------         ------          --------------  --------------  --------------  --------------  --------------  --------------  --------------  --------------  --------------  --------------    1               0:00:00.000     0:14:00.040     0 kbps          0 kbps          00:00:00.000    0 kbps          00:00:00.000    0 kbps          00:00:00.000    0 bytes         0 bytes         00:00:00.000        STREAM DIAGNOSTICS:    File            PID             Type            Codec           Language                Seconds                 Bitrate                 Bytes           Packets           ----            ---             ----            -----           --------                --------------          --------------          -------------   -----             00010.M2TS      4113 (0x1011)   0x1B            AVC                                     0                       0                       0               0                 00010.M2TS      4352 (0x1100)   0x80            LPCM            eng (English)           0                       0                       0               0                   

<–– END FORUMS PASTE ––>

QUICK SUMMARY:

Disc Title: IQ GEPBD9006
Disc Size: 23 093 871 208 bytes
Protection: AACS
BD-Java: No
Playlist: 00005.MPLS
Size: 0 bytes
Length: 0:14:00.040
Total Bitrate: 0,00 Mbps
Video: MPEG-4 AVC Video / 0 kbps / 1080i / 25 fps / 16:9 / High Profile 4.1
Audio: English / LPCM Audio / 2.0 / 48 kHz / 1536 kbps / 16-bit

********************
PLAYLIST: 00006.MPLS
********************

<–- BEGIN FORUMS PASTE –->

                                                                                                                  Total   Video                                               Title                                                           Codec   Length  Movie Size      Disc Size       Bitrate Bitrate Main Audio Track                          Secondary Audio Track  -----                                                           ------  ------- --------------  --------------  ------- ------- ------------------                        ---------------------  00006.MPLS                                                      AVC     0:11:43 0               23 093 871 208  0,00    0,00    LPCM 2.0 1536Kbps (48kHz/16-bit)            

    DISC INFO:    Disc Title:     IQ GEPBD9006  Disc Size:      23 093 871 208 bytes  Protection:     AACS  BD-Java:        No  Extras:         50Hz Content  BDInfo:         0.5.8    PLAYLIST REPORT:    Name:                   00006.MPLS  Length:                 0:11:43.720 (h:m:s.ms)  Size:                   0 bytes  Total Bitrate:          0,00 Mbps    VIDEO:    Codec                   Bitrate             Description       -----                   -------             -----------       MPEG-4 AVC Video        0 kbps              1080i / 25 fps / 16:9 / High Profile 4.1    AUDIO:    Codec                           Language        Bitrate         Description       -----                           --------        -------         -----------       LPCM Audio                      English         1536 kbps       2.0 / 48 kHz / 1536 kbps / 16-bit    FILES:    Name            Time In         Length          Size            Total Bitrate     ----            -------         ------          ----            -------------     00012.M2TS      0:00:00.000     0:11:43.720     0               0                   CHAPTERS:    Number          Time In         Length          Avg Video Rate  Max 1-Sec Rate  Max 1-Sec Time  Max 5-Sec Rate  Max 5-Sec Time  Max 10Sec Rate  Max 10Sec Time  Avg Frame Size  Max Frame Size  Max Frame Time    ------          -------         ------          --------------  --------------  --------------  --------------  --------------  --------------  --------------  --------------  --------------  --------------    1               0:00:00.000     0:11:43.720     0 kbps          0 kbps          00:00:00.000    0 kbps          00:00:00.000    0 kbps          00:00:00.000    0 bytes         0 bytes         00:00:00.000        STREAM DIAGNOSTICS:    File            PID             Type            Codec           Language                Seconds                 Bitrate                 Bytes           Packets           ----            ---             ----            -----           --------                --------------          --------------          -------------   -----             00012.M2TS      4113 (0x1011)   0x1B            AVC                                     0                       0                       0               0                 00012.M2TS      4352 (0x1100)   0x80            LPCM            eng (English)           0                       0                       0               0                   

<–– END FORUMS PASTE ––>

QUICK SUMMARY:

Disc Title: IQ GEPBD9006
Disc Size: 23 093 871 208 bytes
Protection: AACS
BD-Java: No
Playlist: 00006.MPLS
Size: 0 bytes
Length: 0:11:43.720
Total Bitrate: 0,00 Mbps
Video: MPEG-4 AVC Video / 0 kbps / 1080i / 25 fps / 16:9 / High Profile 4.1
Audio: English / LPCM Audio / 2.0 / 48 kHz / 1536 kbps / 16-bit

********************
PLAYLIST: 00004.MPLS
********************

<–- BEGIN FORUMS PASTE –->

                                                                                                                  Total   Video                                               Title                                                           Codec   Length  Movie Size      Disc Size       Bitrate Bitrate Main Audio Track                          Secondary Audio Track  -----                                                           ------  ------- --------------  --------------  ------- ------- ------------------                        ---------------------  00004.MPLS                                                      AVC     0:07:22 0               23 093 871 208  0,00    0,00    LPCM 2.0 1536Kbps (48kHz/16-bit)            

    DISC INFO:    Disc Title:     IQ GEPBD9006  Disc Size:      23 093 871 208 bytes  Protection:     AACS  BD-Java:        No  Extras:         50Hz Content  BDInfo:         0.5.8    PLAYLIST REPORT:    Name:                   00004.MPLS  Length:                 0:07:22.119 (h:m:s.ms)  Size:                   0 bytes  Total Bitrate:          0,00 Mbps    VIDEO:    Codec                   Bitrate             Description       -----                   -------             -----------       MPEG-4 AVC Video        0 kbps              1080i / 25 fps / 16:9 / High Profile 4.1    AUDIO:    Codec                           Language        Bitrate         Description       -----                           --------        -------         -----------       LPCM Audio                      English         1536 kbps       2.0 / 48 kHz / 1536 kbps / 16-bit    FILES:    Name            Time In         Length          Size            Total Bitrate     ----            -------         ------          ----            -------------     00008.M2TS      0:00:00.000     0:07:22.119     0               0                   CHAPTERS:    Number          Time In         Length          Avg Video Rate  Max 1-Sec Rate  Max 1-Sec Time  Max 5-Sec Rate  Max 5-Sec Time  Max 10Sec Rate  Max 10Sec Time  Avg Frame Size  Max Frame Size  Max Frame Time    ------          -------         ------          --------------  --------------  --------------  --------------  --------------  --------------  --------------  --------------  --------------  --------------    1               0:00:00.000     0:07:22.119     0 kbps          0 kbps          00:00:00.000    0 kbps          00:00:00.000    0 kbps          00:00:00.000    0 bytes         0 bytes         00:00:00.000        STREAM DIAGNOSTICS:    File            PID             Type            Codec           Language                Seconds                 Bitrate                 Bytes           Packets           ----            ---             ----            -----           --------                --------------          --------------          -------------   -----             00008.M2TS      4113 (0x1011)   0x1B            AVC                                     0                       0                       0               0                 00008.M2TS      4352 (0x1100)   0x80            LPCM            eng (English)           0                       0                       0               0                   

<–– END FORUMS PASTE ––>

QUICK SUMMARY:

Disc Title: IQ GEPBD9006
Disc Size: 23 093 871 208 bytes
Protection: AACS
BD-Java: No
Playlist: 00004.MPLS
Size: 0 bytes
Length: 0:07:22.119
Total Bitrate: 0,00 Mbps
Video: MPEG-4 AVC Video / 0 kbps / 1080i / 25 fps / 16:9 / High Profile 4.1
Audio: English / LPCM Audio / 2.0 / 48 kHz / 1536 kbps / 16-bit

********************
PLAYLIST: 00008.MPLS
********************

<–- BEGIN FORUMS PASTE –->

                                                                                                                  Total   Video                                               Title                                                           Codec   Length  Movie Size      Disc Size       Bitrate Bitrate Main Audio Track                          Secondary Audio Track  -----                                                           ------  ------- --------------  --------------  ------- ------- ------------------                        ---------------------  00008.MPLS                                                      AVC     0:02:00 0               23 093 871 208  0,00    0,00    LPCM 2.0 2304Kbps (48kHz/24-bit)            

    DISC INFO:    Disc Title:     IQ GEPBD9006  Disc Size:      23 093 871 208 bytes  Protection:     AACS  BD-Java:        No  Extras:         50Hz Content  BDInfo:         0.5.8    PLAYLIST REPORT:    Name:                   00008.MPLS  Length:                 0:02:00.000 (h:m:s.ms)  Size:                   0 bytes  Total Bitrate:          0,00 Mbps    VIDEO:    Codec                   Bitrate             Description       -----                   -------             -----------       MPEG-4 AVC Video        0 kbps              1080i / 			  		   	  		      		 	    	 			   		   	  		 	 	  		  	   	 			   		   	  		 		   			     	 			   		   	  		   				 25 fps / 16:9 / High Profile 4.1    AUDIO:    Codec                           Language        Bitrate         Description       -----                           --------        -------         -----------       LPCM Audio                      English         2304 kbps       2.0 / 48 kHz / 2304 kbps / 24-bit    SUBTITLES:    Codec                           Language        Bitrate         Description       -----                           --------        -------         -----------       Interactive Graphics            English         0,000 kbps                          FILES:    Name            Time In         Length          Size            Total Bitrate     ----            -------         ------          ----            -------------     00016.M2TS      0:00:00.000     0:02:00.000     0               0                   CHAPTERS:    Number          Time In         Length          Avg Video Rate  Max 1-Sec Rate  Max 1-Sec Time  Max 5-Sec Rate  Max 5-Sec Time  Max 10Sec Rate  Max 10Sec Time  Avg Frame Size  Max Frame Size  Max Frame Time    ------          -------         ------          --------------  --------------  --------------  --------------  --------------  --------------  --------------  --------------  --------------  --------------    1               0:00:00.000     0:02:00.000     0 kbps          0 kbps          00:00:00.000    0 kbps          00:00:00.000    0 kbps          00:00:00.000    0 bytes         0 bytes         00:00:00.000        STREAM DIAGNOSTICS:    File            PID             Type            Codec           Language                Seconds                 Bitrate                 Bytes           Packets           ----            ---             ----            -----           --------                --------------          --------------          -------------   -----             00016.M2TS      4113 (0x1011)   0x1B            AVC                                     0                       0                       0               0                 00016.M2TS      4352 (0x1100)   0x80            LPCM            eng (English)           0                       0                       0               0                 00016.M2TS      5120 (0x1400)   0x91            IGS             eng (English)           0                       0                       0               0                   

<–– END FORUMS PASTE ––>

QUICK SUMMARY:

Disc Title: IQ GEPBD9006
Disc Size: 23 093 871 208 bytes
Protection: AACS
BD-Java: No
Playlist: 00008.MPLS
Size: 0 bytes
Length: 0:02:00.000
Total Bitrate: 0,00 Mbps
Video: MPEG-4 AVC Video / 0 kbps / 1080i / 25 fps / 16:9 / High Profile 4.1
Audio: English / LPCM Audio / 2.0 / 48 kHz / 2304 kbps / 24-bit
Subtitle: English / 0,000 kbps

********************
PLAYLIST: 00003.MPLS
********************

<–- BEGIN FORUMS PASTE –->

                                                                                                                  Total   Video                                               Title                                                           Codec   Length  Movie Size      Disc Size       Bitrate Bitrate Main Audio Track                          Secondary Audio Track  -----                                                           ------  ------- --------------  --------------  ------- ------- ------------------                        ---------------------  00003.MPLS                                                      AVC     0:01:46 0               23 093 871 208  0,00    0,00    LPCM 2.0 1536Kbps (48kHz/16-bit)            

    DISC INFO:    Disc Title:     IQ GEPBD9006  Disc Size:      23 093 871 208 bytes  Protection:     AACS  BD-Java:        No  Extras:         50Hz Content  BDInfo:         0.5.8    PLAYLIST REPORT:    Name:                   00003.MPLS  Length:                 0:01:46.480 (h:m:s.ms)  Size:                   0 bytes  Total Bitrate:          0,00 Mbps    VIDEO:    Codec                   Bitrate             Description       -----                   -------             -----------       MPEG-4 AVC Video        0 kbps              1080i / 25 fps / 16:9 / High Profile 4.1    AUDIO:    Codec                           Language        Bitrate         Description       -----                           --------        -------         -----------       LPCM Audio                      English         1536 kbps       2.0 / 48 kHz / 1536 kbps / 16-bit    FILES:    Name            Time In         Length          Size            Total Bitrate     ----            -------         ------          ----            -------------     00006.M2TS      0:00:00.000     0:01:46.480     0               0                   CHAPTERS:    Number          Time In         Length          Avg Video Rate  Max 1-Sec Rate  Max 1-Sec Time  Max 5-Sec Rate  Max 5-Sec Time  Max 10Sec Rate  Max 10Sec Time  Avg Frame Size  Max Frame Size  Max Frame Time    ------          -------         ------          --------------  --------------  --------------  --------------  --------------  --------------  --------------  --------------  --------------  --------------    1               0:00:00.000     0:01:46.480     0 kbps          0 kbps          00:00:00.000    0 kbps          00:00:00.000    0 kbps          00:00:00.000    0 bytes         0 bytes         00:00:00.000        STREAM DIAGNOSTICS:    File            PID             Type            Codec           Language                Seconds                 Bitrate                 Bytes           Packets           ----            ---             ----            -----           --------                --------------          --------------          -------------   -----             00006.M2TS      4113 (0x1011)   0x1B            AVC                                     0                       0                       0               0                 00006.M2TS      4352 (0x1100)   0x80            LPCM            eng (English)           0                       0                       0               0                   

<–– END FORUMS PASTE ––>

QUICK SUMMARY:

Disc Title: IQ GEPBD9006
Disc Size: 23 093 871 208 bytes
Protection: AACS
BD-Java: No
Playlist: 00003.MPLS
Size: 0 bytes
Length: 0:01:46.480
Total Bitrate: 0,00 Mbps
Video: MPEG-4 AVC Video / 0 kbps / 1080i / 25 fps / 16:9 / High Profile 4.1
Audio: English / LPCM Audio / 2.0 / 48 kHz / 1536 kbps / 16-bit

********************
PLAYLIST: 00001.MPLS
********************

<–- BEGIN FORUMS PASTE –->

                                                                                                                  Total   Video                                               Title                                                           Codec   Length  Movie Size      Disc Size       Bitrate Bitrate Main Audio Track                          Secondary Audio Track  -----                                                           ------  ------- --------------  --------------  ------- ------- ------------------                        ---------------------  00001.MPLS                                                      AVC     0:01:02 0               23 093 871 208  0,00    0,00    LPCM 2.0 1536Kbps (48kHz/16-bit)            

    DISC INFO:    Disc Title:     IQ GEPBD9006  Disc Size:      23 093 871 208 bytes  Protection:     AACS  BD-Java:        No  Extras:         50Hz Content  BDInfo:         0.5.8    PLAYLIST REPORT:    Name:                   00001.MPLS  Length:                 0:01:02.840 (h:m:s.ms)  Size:                   0 bytes  Total Bitrate:          0,00 Mbps    VIDEO:    Codec                   Bitrate             Description       -----                   -------             -----------       MPEG-4 AVC Video        0 kbps              1080i / 25 fps / 16:9 / High Profile 4.1    AUDIO:    Codec                           Language        Bitrate         Description       -----                           --------        -------         -----------       LPCM Audio                      English         1536 kbps       2.0 / 48 kHz / 1536 kbps / 16-bit    FILES:    Name            Time In         Length          Size            Total Bitrate     ----            -------         ------          ----            -------------     00002.M2TS      0:00:00.000     0:01:02.840     0               0                   CHAPTERS:    Number          Time In         Length          Avg Video Rate  Max 1-Sec Rate  Max 1-Sec Time  Max 5-Sec Rate  Max 5-Sec Time  Max 10Sec Rate  Max 10Sec Time  Avg Frame Size  Max Frame Size  Max Frame Time    ------          -------         ------          --------------  --------------  --------------  --------------  --------------  --------------  --------------  --------------  --------------  --------------    1               0:00:00.000     0:01:02.840     0 kbps          0 kbps          00:00:00.000    0 kbps          00:00:00.000    0 kbps          00:00:00.000    0 bytes         0 bytes         00:00:00.000        STREAM DIAGNOSTICS:    File            PID             Type            Codec           Language                Seconds                 Bitrate                 Bytes           Packets           ----            ---             ----            -----           --------                --------------          --------------          -------------   -----             00002.M2TS      4113 (0x1011)   0x1B            AVC                                     0                       0                       0               0                 00002.M2TS      4352 (0x1100)   0x80            LPCM            eng (English)           0                       0                       0               0                   

<–– END FORUMS PASTE ––>

QUICK SUMMARY:

Disc Title: IQ GEPBD9006
Disc Size: 23 093 871 208 bytes
Protection: AACS
BD-Java: No
Playlist: 00001.MPLS
Size: 0 bytes
Length: 0:01:02.840
Total Bitrate: 0,00 Mbps
Video: MPEG-4 AVC Video / 0 kbps / 1080i / 25 fps / 16:9 / High Profile 4.1
Audio: English / LPCM Audio / 2.0 / 48 kHz / 1536 kbps / 16-bit

IQ - Scrape Across The Sky (2016)

IQ - Scrape Across The Sky (2016)

IQ - Scrape Across The Sky (2016)

IQ - Scrape Across The Sky (2016)

IQ - Scrape Across The Sky (2016)

All thanks go to tatuk

Download IQ – Scrape Across The Sky (2016):

IQ – Scrape Across The Sky (2016) Download, Warez, DDL, Free, Full Album, Torrent, Legal.

Download