Invisible Opera Company Of Tibet – Invisible Opera Company Of Tibet (1987) Re-up

Download
Invisible Opera Company Of Tibet - Invisible Opera Company Of Tibet (1987) Re-up

Invisible Opera Company Of Tibet – Invisible Opera Company Of Tibet (1987)
EAC Rip | FLAC: Image+Cue+Log | 332 Mb | MP3 CBR 320 kbps | 138 Mb | Scans | Time: 58:02
Voiceprint | VP106CD
Psychedelic, Jazz Rock, Cantebury Scene, GONG-family

Daevid Allen has enjoyed an enviable reputation within the music business over the last forty plus years. He has formed many groups and musical alliances, in order to further his musical visions. During the eighties Daevid found himself back in his native Australia having been exiled from the U.K. At this time he continued to make music and one of the bands he formed was, Invisible Opera Company Of Tibet (oz).

Planet Gong | Wikipedia | Amazon
Invisible Opera Company Of Tibet - Invisible Opera Company Of Tibet (1987) Re-up

Track Listing

01. Marpa’s Entrance (3:29)
02. G’Day (2:38)
03. Hungry Ghosts (1:03)
04. Away Away (5:34)
05. Trial By Headline (3:03)
06. Chernobyl Rain (3:43)
07. Gorilla (7:09)
08. Milarepa’s Journey (5:47)
09. The Other Side Of Me (5:43)
10. Man And Woman (4:39)
11. The Family (6:18)
12. Stormbirds (5:09)
13. The Actor (3:47)

Produced by Harry Williamson

The Band

• Candrabhanu, Arun Munoz – drums & percussion
• Minute Sastrowasdoyo – violin
• Bronwyn Jones – flute
• Russel Hibbs – vocals
• Harry Williamson, Gilli Smith – space whisper
• Neil Cairney – percussion
• Michael Brosman – didgerydoo
• B.D. CO. – drums & percussion
• W.A. Brothers – didgerydoo
• Daevid Allwn – guitar & vocals
• Steve Rocket, Robert Calvert – saxophones

Notes

Daevid Allen is an Australian musician who started Soft Machine with Robert Wyatt but is best known for forming Gong. The self-titled 1987 album released in Australia is the only version of this band with Daevid Allen.

EAC Log
Exact Audio Copy V0.99 prebeta 4 from 23. January 2008

Отчёт EAC об извлечении, выполненном 2. марта 2009, 0:25

Invisible Opera Company of Tibet / Invisible Opera Company of Tibet

Дисковод: Optiarc DVD RW AD-7170A Adapter: 0 ID: 1

Режим чтения : Достоверность
Использование точного потока : Да
Отключение кэша аудио : Да
Использование указателей C2 : Нет

Коррекция смещения при чтении : 48
Способность читать области Lead-in и Lead-out : Нет
Заполнение пропущенных сэмплов тишиной : Да
Удаление блоков с тишиной в начале и конце : Нет
При вычислениях CRC использовались нулевые сэмплы : Да
Интерфейс : Установленный внешний ASPI-интерфейс

Выходной формат : Пользовательский кодировщик
Выбранный битрейт : 768 kBit/s
Качество : Высокий
Добавление ID3-тэга : Нет
Утилита сжатия : C:Program Files (x86)Exact Audio CopyFLACFLAC.EXE
Дополнительные параметры : -6 -V -T "ARTIST=%a" -T "TITLE=%t" -T "ALBUM=%g" -T "DATE=%y" -T "TRACKNUMBER=%n" -T "GENRE=%m" -T "COMMENT=%e" %s -o %d

TOC извлечённого CD

Трек | Старт | Длительность | Начальный сектор | Конечный сектор
––––––––––––––––––––––––––––––––––-
1 | 0:00.00 | 3:29.45 | 0 | 15719
2 | 3:29.45 | 2:38.62 | 15720 | 27631
3 | 6:08.32 | 1:03.15 | 27632 | 32371
4 | 7:11.47 | 5:34.63 | 32372 | 57484
5 | 12:46.35 | 3:03.20 | 57485 | 71229
6 | 15:49.55 | 3:42.70 | 71230 | 87949
7 | 19:32.50 | 7:09.65 | 87950 | 120189
8 | 26:42.40 | 5:47.10 | 120190 | 146224
9 | 32:29.50 | 5:43.45 | 146225 | 171994
10 | 38:13.20 | 4:39.12 | 171995 | 192931
11 | 42:52.32 | 6:18.03 | 192932 | 221284
12 | 49:10.35 | 5:09.35 | 221285 | 244494
13 | 54:19.70 | 3:47.67 | 244495 | 261586

Характеристики диапазона извлечения и сообщения об ошибках

Выбранный диапазон

Имя файла C:UsersРоманDocumentsInvisible Opera Company of Tibet – Invisible Opera Company of Tibet.wav

Пиковый уровень 100.0 %
Качество диапазона 100.0 %
CRC копии 75461F54
Копирование… OK

Ошибок не произошло

AccurateRip: сводка

Трек 1 нет в базе данных
Трек 2 нет в базе данных
Трек 3 нет в базе данных
Трек 4 нет в базе данных
Трек 5 нет в базе данных
Трек 6 нет в базе данных
Трек 7 нет в базе данных
Трек 8 нет в базе данных
Трек 9 нет в базе данных
Трек 10 нет в базе данных
Трек 11 нет в базе данных
Трек 12 нет в базе данных
Трек 13 нет в базе данных

Ни одного трека нет в базе AccurateRip

Конец отчёта

Many thanks to the original uploader: Torturegarden

SEE also:
Pierre Moerlen’s Gong 1979 Downwind [Remastered 2010]
Pierre Moerlen’s Gong 1979 Time Is The Key [Remastered 2010]
Pierre Moerlen’s Gong 1980 Live [Reissue 1991]
Pierre Moerlen’s Gong 1981 Leave It Open [Remastered 2011]
Pierre Moerlen’s Gong 1986 Breakthrough
Pierre Moerlen’s Gong 1988 Second Wind
Pierre Moerlen’s Gong 2001 Full Circle – Live 1988

Robert Calvert 1974 Captain Lockheed And The Starfighters [Remastered 2007]
Robert Calvert 1975 Lucky Lief And The Longships [Remastered 2007]

Soft Machine 1968 The Soft Machine (Volume One) [Remastered 2009]
Soft Machine 1969 Volume Two [Remastered 2009]
Soft Machine 1970 Third [Japan DSD Mastering, 2005]

……
Welcome to My Blog for more wonderful music!
……

Invisible Opera Company Of Tibet – Invisible Opera Company Of Tibet (1987) Re-up Download, Warez, DDL, Free, Full Album, Torrent, Legal.

Download