Interstate Blues – Dragon Lady (2016)

Download
Interstate Blues - Dragon Lady (2016)

Interstate Blues – Dragon Lady (2016)
EAC Rip | FLAC: Image+Cue+Log | 293 Mb | MP3 CBR 320 kbps | 125 Mb | Scans | Time: 42:19
Interstate Blues | IB 1118-2
Blues Rock, Hard Rock

Killer new studio disc by this bad-ass, heavy power trio from California featuring Jamie Purpora on guitar. On Dragon Lady, the 11th Interstate Blues disc to land, the band tears into a brain-damaging set of 10 excellent, powerful, hard-hitting, lead guitar dominated tracks that kick serious six string ass from start to finish. Purpora is a fierce axe rippin’ animal who lays down the heavy guitar law on this intense, balls to the wall riff:monster. Highly recommended to fans of all the other Interstate Blues discs and to all the serious guitar rock fanatics worldwide who like to rock guitar heavy.

Interstate Blues | CD Baby

Track Listing

01. Frayed (03:58)
02. The Winters Wind (03:26)
03. Dragon Lady (07:00)
04. Shadow Play (05:31)
05. Loco El Gato (01:25)
06. Spinning in My Mind (03:55)
07. Wishin’ Well (05:21)
08. Born This Way (04:31)
09. Her Darkest Ways (04:53)
10. Still Who I Wanna Be (02:19)

Produced by Jamie Purpora

The Band

• Jamie Purpora – vocals, guitar
• Jeremy Crowther – drums
• VJ Thesis – bass

EAC Log
Exact Audio Copy V1.0 beta 3 from 29. August 2011

Отчёт EAC об извлечении, выполненном 22. декабря 2016, 11:53

Interstate Blues / Dragon Lady

Дисковод: ATAPI iHAS424 A Adapter: 0 ID: 0

Режим чтения : Достоверность
Использование точного потока : Да
Отключение кэша аудио : Да
Использование указателей C2 : Нет

Коррекция смещения при чтении : 6
Способность читать области Lead-in и Lead-out : Нет
Заполнение пропущенных сэмплов тишиной : Да
Удаление блоков с тишиной в начале и конце : Нет
При вычислениях CRC использовались нулевые сэмплы : Да
Интерфейс : Установленный внешний ASPI-интерфейс

Выходной формат : Пользовательский кодировщик
Выбранный битрейт : 1024 kBit/s
Качество : Высокий
Добавление ID3-тега : Нет
Утилита сжатия : C:Program FilesExact Audio CopyFLACFLAC.EXE
Дополнительные параметры : -8 -V -T "ARTIST=%artist%" -T "ALBUM=%albumtitle%" -T "DATE=%year%" -T "GENRE=%genre%" -T "COMMENT=ripped by izia1956" %source%

TOC извлечённого CD

Трек | Старт | Длительность | Начальный сектор | Конечный сектор
––––––––––––––––––––––––––––––––––-
1 | 0:00.00 | 3:57.48 | 0 | 17822
2 | 3:57.48 | 3:25.72 | 17823 | 33269
3 | 7:23.45 | 7:00.18 | 33270 | 64787
4 | 14:23.63 | 5:30.68 | 64788 | 89605
5 | 19:54.56 | 1:24.63 | 89606 | 95968
6 | 21:19.44 | 3:55.04 | 95969 | 113597
7 | 25:14.48 | 5:21.09 | 113598 | 137681
8 | 30:35.57 | 4:30.63 | 137682 | 157994
9 | 35:06.45 | 4:52.56 | 157995 | 179950
10 | 39:59.26 | 2:19.17 | 179951 | 190392

Характеристики диапазона извлечения и сообщения об ошибках

Выбранный диапазон

Имя файла D:BitCometInterstate Blues (flac)2016 – Dragon LadyInterstate Blues – Dragon Lady.wav

Пиковый уровень 100.0 %
Скорость извлечения 5.6 X
Качество диапазона 100.0 %
CRC теста 6777EB93
CRC копии 6777EB93
Копирование… OK

Ошибок не произошло

AccurateRip: сводка

Трек 1 отсутствует в базе данных
Трек 2 отсутствует в базе данных
Трек 3 отсутствует в базе данных
Трек 4 отсутствует в базе данных
Трек 5 отсутствует в базе данных
Трек 6 отсутствует в базе данных
Трек 7 отсутствует в базе данных
Трек 8 отсутствует в базе данных
Трек 9 отсутствует в базе данных
Трек 10 отсутствует в базе данных

Ни одного трека нет в базе AccurateRip

Конец отчёта

==== Контрольная сумма отчёта B4FCEE2BAF9372BD0821F9E7E8DDB7A5242B9C66D6B22C8B8E58C2AFBE30EA18 ====

Many thanks to the original uploader: izia1956

Interstate Blues – Dragon Lady (2016) Download, Warez, DDL, Free, Full Album, Torrent, Legal.

Download