Ingrid Marsoner – Im Nebel (Janacek, Schubert, Grieg) [2002]

Download
Ingrid Marsoner - Im Nebel (Janacek, Schubert, Grieg) [2002]

Ingrid Marsoner – Im Nebel (Janacek, Schubert, Grieg) [2002]
EAC Rip | FLAC, IMG+CUE, LOG | Covers | 1cd, 203 MB
Classical | Label: ORF | Catalog Number: CD330 | TT: 60’51

A very sensitive pianist, whose specialty is the romantic note. You can not just optically see how she lives the sounds”, writes Wilhelm Sinkovic in the "Presse” about the young pianist Ingrid Marsoner from Graz. These, recently published Ö1-CD records of the Studio Styria prove this critic-comment is not to be seen as exaggerated.

Performer:
Ingrid Marsoner – Piano

Tracklisting:
Leos Janácek (1854 – 1928)
01. Im Nebel (1912) – 1.Andante 02:59
02. 2.Molto adagio 03:22
03. 3.Andantino 02:10
04. 4.Presto 04:33
Franz Schubert (1797 – 1828)
05. Sonate in B-Dur, D 960 (1828) – 1.Molto moderato 14:31
06. 2.Andante sostenuto 09:20
07. 3.Scherzo 04:25
08. 4.Allegro, ma non troppo 08:54
Edvard Grieg (1843 – 1907)
09. Lyrische Stücke, op. 12 (1867) – 1.Arietta 01:13
10. 2.Walzer 01:37
11. 3.Wachterlied 02:25
12. 4.Elfentanz 00:48
13. 5.Volksweise 01:23
14. 6.Norwegisch 00:59
15. 7.Albumblatt 01:18
16. 8.Vaterlandisches Lied 01:16

LOG
Exact Audio Copy V1.0 beta 3 from 29. August 2011

EAC extraction logfile from 7. March 2014, 6:52

Ingrid Marsoner / Im Nebel

Used drive : ATAPI iHAS122 C Adapter: 0 ID: 0

Read mode : Secure
Utilize accurate stream : Yes
Defeat audio cache : Yes
Make use of C2 pointers : No

Read offset correction : 6
Overread into Lead-In and Lead-Out : No
Fill up missing offset samples with silence : Yes
Delete leading and trailing silent blocks : No
Null samples used in CRC calculations : Yes
Used interface : Native Win32 interface for Win NT & 2000

Used output format : User Defined Encoder
Selected bitrate : 192 kBit/s
Quality : High
Add ID3 tag : No
Command line compressor : C:Program FilesExact Audio CopyFlacflac.exe
Additional command line options : -V -8 -T "Date=%year%" -T "Genre=%genre%" %source%

TOC of the extracted CD

Track | Start | Length | Start sector | End sector
––––––––––––––––––––––––––––-
1 | 0:00.00 | 2:58.64 | 0 | 13413
2 | 2:58.64 | 3:21.55 | 13414 | 28543
3 | 6:20.44 | 2:10.06 | 28544 | 38299
4 | 8:30.50 | 4:32.51 | 38300 | 58750
5 | 13:03.26 | 14:30.38 | 58751 | 124038
6 | 27:33.64 | 9:20.10 | 124039 | 166048
7 | 36:53.74 | 4:24.45 | 166049 | 185893
8 | 41:18.44 | 8:54.10 | 185894 | 225953
9 | 50:12.54 | 1:13.18 | 225954 | 231446
10 | 51:25.72 | 1:37.29 | 231447 | 238750
11 | 53:03.26 | 2:24.48 | 238751 | 249598
12 | 55:27.74 | 0:48.03 | 249599 | 253201
13 | 56:16.02 | 1:22.47 | 253202 | 259398
14 | 57:38.49 | 0:58.46 | 259399 | 263794
15 | 58:37.20 | 1:17.48 | 263795 | 269617
16 | 59:54.68 | 1:16.27 | 269618 | 275344

Range status and errors

Selected range

Filename C:Program FilesExact Audio CopyFlacIngrid Marsoner – Im Nebel.wav

Peak level 97.7 %
Extraction speed 8.9 X
Range quality 99.9 %
Test CRC 8AFC39B4
Copy CRC 8AFC39B4
Copy OK

No errors occurred

AccurateRip summary

Track 1 not present in database
Track 2 not present in database
Track 3 not present in database
Track 4 not present in database
Track 5 not present in database
Track 6 not present in database
Track 7 not present in database
Track 8 not present in database
Track 9 not present in database
Track 10 not present in database
Track 11 not present in database
Track 12 not present in database
Track 13 not present in database
Track 14 not present in database
Track 15 not present in database
Track 16 not present in database

None of the tracks are present in the AccurateRip database

End of status report

==== Log checksum EFE94600EA8A174966032461F7AD496C517E94D3C085BC467013344FF33CB828 ====

Ingrid Marsoner – Im Nebel (Janacek, Schubert, Grieg) [2002] Download, Warez, DDL, Free, Full Album, Torrent, Legal.

Download